  0
SECTION
  2
HEADER
  9
$ACADVER
  1
AC1015
  9
$ACADMAINTVER
 70
     6
  9
$DWGCODEPAGE
  3
ANSI_1252
  9
$INSBASE
 10
0.0
 20
0.0
 30
0.0
  9
$EXTMIN
 10
0.0
 20
0.0
 30
0.0
  9
$EXTMAX
 10
1727.2
 20
1117.6
 30
0.0
  9
$LIMMIN
 10
0.0
 20
0.0
  9
$LIMMAX
 10
1727.2
 20
1117.6
  9
$ORTHOMODE
 70
     0
  9
$REGENMODE
 70
     1
  9
$FILLMODE
 70
     1
  9
$QTEXTMODE
 70
     0
  9
$MIRRTEXT
 70
     1
  9
$LTSCALE
 40
4.0
  9
$ATTMODE
 70
     1
  9
$TEXTSIZE
 40
12.7
  9
$TRACEWID
 40
1.0
  9
$TEXTSTYLE
  7
STANDARD
  9
$CLAYER
  8
0
  9
$CELTYPE
  6
ByLayer
  9
$CECOLOR
 62
   256
  9
$CELTSCALE
 40
1.0
  9
$DISPSILH
 70
     0
  9
$DIMSCALE
 40
1.0
  9
$DIMASZ
 40
8.0
  9
$DIMEXO
 40
3.048
  9
$DIMDLI
 40
3.75
  9
$DIMRND
 40
0.0
  9
$DIMDLE
 40
0.0
  9
$DIMEXE
 40
3.048
  9
$DIMTP
 40
0.0
  9
$DIMTM
 40
0.0
  9
$DIMTXT
 40
12.7
  9
$DIMCEN
 40
2.5
  9
$DIMTSZ
 40
0.0
  9
$DIMTOL
 70
     0
  9
$DIMLIM
 70
     0
  9
$DIMTIH
 70
     1
  9
$DIMTOH
 70
     1
  9
$DIMSE1
 70
     0
  9
$DIMSE2
 70
     0
  9
$DIMTAD
 70
     0
  9
$DIMZIN
 70
     1
  9
$DIMBLK
  1

  9
$DIMASO
 70
     1
  9
$DIMSHO
 70
     1
  9
$DIMPOST
  1

  9
$DIMAPOST
  1

  9
$DIMALT
 70
     0
  9
$DIMALTD
 70
     3
  9
$DIMALTF
 40
0.0393700787
  9
$DIMLFAC
 40
1.0
  9
$DIMTOFL
 70
     1
  9
$DIMTVP
 40
0.0
  9
$DIMTIX
 70
     0
  9
$DIMSOXD
 70
     0
  9
$DIMSAH
 70
     0
  9
$DIMBLK1
  1

  9
$DIMBLK2
  1

  9
$DIMSTYLE
  2
ISO-25
  9
$DIMCLRD
 70
     0
  9
$DIMCLRE
 70
     0
  9
$DIMCLRT
 70
     0
  9
$DIMTFAC
 40
1.0
  9
$DIMGAP
 40
6.096
  9
$DIMJUST
 70
     0
  9
$DIMSD1
 70
     0
  9
$DIMSD2
 70
     0
  9
$DIMTOLJ
 70
     0
  9
$DIMTZIN
 70
     1
  9
$DIMALTZ
 70
     0
  9
$DIMALTTZ
 70
     0
  9
$DIMUPT
 70
     0
  9
$DIMDEC
 70
     2
  9
$DIMTDEC
 70
     2
  9
$DIMALTU
 70
     2
  9
$DIMALTTD
 70
     3
  9
$DIMTXSTY
  7
STANDARD
  9
$DIMAUNIT
 70
     0
  9
$DIMADEC
 70
     0
  9
$DIMALTRND
 40
0.0
  9
$DIMAZIN
 70
     0
  9
$DIMDSEP
 70
    44
  9
$DIMATFIT
 70
     3
  9
$DIMFRAC
 70
     0
  9
$DIMLDRBLK
  1

  9
$DIMLUNIT
 70
     2
  9
$DIMLWD
 70
    -2
  9
$DIMLWE
 70
    -2
  9
$DIMTMOVE
 70
     0
  9
$LUNITS
 70
     2
  9
$LUPREC
 70
     6
  9
$SKETCHINC
 40
1.0
  9
$FILLETRAD
 40
0.0
  9
$AUNITS
 70
     0
  9
$AUPREC
 70
     0
  9
$MENU
  1
.
  9
$ELEVATION
 40
0.0
  9
$PELEVATION
 40
0.0
  9
$THICKNESS
 40
0.0
  9
$LIMCHECK
 70
     0
  9
$CHAMFERA
 40
0.0
  9
$CHAMFERB
 40
0.0
  9
$CHAMFERC
 40
0.0
  9
$CHAMFERD
 40
0.0
  9
$SKPOLY
 70
     0
  9
$TDCREATE
 40
2460550.633827049
  9
$TDUCREATE
 40
2460550.925493716
  9
$TDUPDATE
 40
2460550.633831679
  9
$TDUUPDATE
 40
2460550.925498345
  9
$TDINDWG
 40
0.0000000116
  9
$TDUSRTIMER
 40
0.0000000116
  9
$USRTIMER
 70
     1
  9
$ANGBASE
 50
0.0
  9
$ANGDIR
 70
     0
  9
$PDMODE
 70
     0
  9
$PDSIZE
 40
-1.0
  9
$PLINEWID
 40
0.0
  9
$SPLFRAME
 70
     0
  9
$SPLINETYPE
 70
     6
  9
$SPLINESEGS
 70
     8
  9
$HANDSEED
  5
43B
  9
$SURFTAB1
 70
     6
  9
$SURFTAB2
 70
     6
  9
$SURFTYPE
 70
     6
  9
$SURFU
 70
     6
  9
$SURFV
 70
     6
  9
$UCSBASE
  2

  9
$UCSNAME
  2

  9
$UCSORG
 10
0.0
 20
0.0
 30
0.0
  9
$UCSXDIR
 10
1.0
 20
0.0
 30
0.0
  9
$UCSYDIR
 10
0.0
 20
1.0
 30
0.0
  9
$UCSORTHOREF
  2

  9
$UCSORTHOVIEW
 70
     0
  9
$UCSORGTOP
 10
0.0
 20
0.0
 30
0.0
  9
$UCSORGBOTTOM
 10
0.0
 20
0.0
 30
0.0
  9
$UCSORGLEFT
 10
0.0
 20
0.0
 30
0.0
  9
$UCSORGRIGHT
 10
0.0
 20
0.0
 30
0.0
  9
$UCSORGFRONT
 10
0.0
 20
0.0
 30
0.0
  9
$UCSORGBACK
 10
0.0
 20
0.0
 30
0.0
  9
$PUCSBASE
  2

  9
$PUCSNAME
  2

  9
$PUCSORG
 10
0.0
 20
0.0
 30
0.0
  9
$PUCSXDIR
 10
1.0
 20
0.0
 30
0.0
  9
$PUCSYDIR
 10
0.0
 20
1.0
 30
0.0
  9
$PUCSORTHOREF
  2

  9
$PUCSORTHOVIEW
 70
     0
  9
$PUCSORGTOP
 10
0.0
 20
0.0
 30
0.0
  9
$PUCSORGBOTTOM
 10
0.0
 20
0.0
 30
0.0
  9
$PUCSORGLEFT
 10
0.0
 20
0.0
 30
0.0
  9
$PUCSORGRIGHT
 10
0.0
 20
0.0
 30
0.0
  9
$PUCSORGFRONT
 10
0.0
 20
0.0
 30
0.0
  9
$PUCSORGBACK
 10
0.0
 20
0.0
 30
0.0
  9
$USERI1
 70
     0
  9
$USERI2
 70
     0
  9
$USERI3
 70
     0
  9
$USERI4
 70
     0
  9
$USERI5
 70
     0
  9
$USERR1
 40
0.0
  9
$USERR2
 40
0.0
  9
$USERR3
 40
0.0
  9
$USERR4
 40
0.0
  9
$USERR5
 40
0.0
  9
$WORLDVIEW
 70
     1
  9
$SHADEDGE
 70
     3
  9
$SHADEDIF
 70
    70
  9
$TILEMODE
 70
     1
  9
$MAXACTVP
 70
    64
  9
$PINSBASE
 10
0.0
 20
0.0
 30
0.0
  9
$PLIMCHECK
 70
     0
  9
$PEXTMIN
 10
1.0000000000E+20
 20
1.0000000000E+20
 30
1.0000000000E+20
  9
$PEXTMAX
 10
-1.0000000000E+20
 20
-1.0000000000E+20
 30
-1.0000000000E+20
  9
$PLIMMIN
 10
0.0
 20
0.0
  9
$PLIMMAX
 10
420.0
 20
297.0
  9
$UNITMODE
 70
     0
  9
$VISRETAIN
 70
     1
  9
$PLINEGEN
 70
     0
  9
$PSLTSCALE
 70
     1
  9
$TREEDEPTH
 70
  3020
  9
$CMLSTYLE
  2
Standard
  9
$CMLJUST
 70
     0
  9
$CMLSCALE
 40
20.0
  9
$PROXYGRAPHICS
 70
     1
  9
$MEASUREMENT
 70
     1
  9
$CELWEIGHT
370
    -1
  9
$ENDCAPS
280
     0
  9
$JOINSTYLE
280
     0
  9
$LWDISPLAY
290
     1
  9
$INSUNITS
 70
     4
  9
$HYPERLINKBASE
  1

  9
$STYLESHEET
  1

  9
$XEDIT
290
     1
  9
$CEPSNTYPE
380
     0
  9
$PSTYLEMODE
290
     1
  9
$FINGERPRINTGUID
  2
{bc1c8e36-e6f6-4a7e-ac7a-b7669ca58c56}
  9
$VERSIONGUID
  2
{FAEB1C32-E019-11D5-929B-00C0DF256EC4}
  9
$EXTNAMES
290
     1
  9
$PSVPSCALE
 40
0.0
  9
$OLESTARTUP
290
     0
  0
ENDSEC
  0
SECTION
  2
CLASSES
  0
CLASS
  1
ACDBDICTIONARYWDFLT
  2
AcDbDictionaryWithDefault
  3
ObjectDBX Classes
 90
        0
280
     0
281
     0
  0
CLASS
  1
VISUALSTYLE
  2
AcDbVisualStyle
  3
ObjectDBX Classes
 90
     4095
280
     0
281
     0
  0
CLASS
  1
MATERIAL
  2
AcDbMaterial
  3
ObjectDBX Classes
 90
     1153
280
     0
281
     0
  0
CLASS
  1
SCALE
  2
AcDbScale
  3
ObjectDBX Classes
 90
     1153
280
     0
281
     0
  0
CLASS
  1
TABLESTYLE
  2
AcDbTableStyle
  3
ObjectDBX Classes
 90
     4095
280
     0
281
     0
  0
CLASS
  1
MLEADERSTYLE
  2
AcDbMLeaderStyle
  3
ACDB_MLEADERSTYLE_CLASS
 90
     4095
280
     0
281
     0
  0
CLASS
  1
SUN
  2
AcDbSun
  3
SCENEOE
 90
     1153
280
     0
281
     0
  0
CLASS
  1
ACDBPLACEHOLDER
  2
AcDbPlaceHolder
  3
ObjectDBX Classes
 90
        0
280
     0
281
     0
  0
CLASS
  1
LAYOUT
  2
AcDbLayout
  3
ObjectDBX Classes
 90
        0
280
     0
281
     0
  0
ENDSEC
  0
SECTION
  2
TABLES
  0
TABLE
  2
VPORT
  5
8
330
0
100
AcDbSymbolTable
 70
     1
  0
VPORT
  5
29
330
8
100
AcDbSymbolTableRecord
100
AcDbViewportTableRecord
  2
*Active
 70
     0
 10
0.0
 20
0.0
 11
1.0
 21
1.0
 12
863.6
 22
558.8
 13
0.0
 23
0.0
 14
10.0
 24
10.0
 15
10.0
 25
10.0
 16
0.0
 26
0.0
 36
1.0
 17
0.0
 27
0.0
 37
0.0
 40
1117.6
 41
1.5454545455
 42
50.0
 43
0.0
 44
0.0
 50
0.0
 51
0.0
 71
     0
 72
  2000
 73
     1
 74
     3
 75
     0
 76
     0
 77
     0
 78
     0
281
     0
 65
     1
110
0.0
120
0.0
130
0.0
111
1.0
121
0.0
131
0.0
112
0.0
122
1.0
132
0.0
 79
     0
146
0.0
  0
ENDTAB
  0
TABLE
  2
LTYPE
  5
5
330
0
100
AcDbSymbolTable
 70
     6
  0
LTYPE
  5
14
330
5
100
AcDbSymbolTableRecord
100
AcDbLinetypeTableRecord
  2
ByBlock
 70
     0
  3

 72
    65
 73
     0
 40
0.0
  0
LTYPE
  5
15
330
5
100
AcDbSymbolTableRecord
100
AcDbLinetypeTableRecord
  2
ByLayer
 70
     0
  3

 72
    65
 73
     0
 40
0.0
  0
LTYPE
  5
16
330
5
100
AcDbSymbolTableRecord
100
AcDbLinetypeTableRecord
  2
Continuous
 70
     0
  3
Solid line
 72
    65
 73
     0
 40
0.0
  0
LTYPE
  5
5E
330
5
100
AcDbSymbolTableRecord
100
AcDbLinetypeTableRecord
  2
HIDDEN
 70
     0
  3
Hidden __ __ __ __ __ __ __ __ __ __ __ __ __ __
 72
    65
 73
     2
 40
1.905
 49
1.27
 74
     0
 49
-0.635
 74
     0
  0
LTYPE
  5
5F
330
5
100
AcDbSymbolTableRecord
100
AcDbLinetypeTableRecord
  2
PHANTOM
 70
     0
  3
Phantom ______  __  __  ______  __  __  ______
 72
    65
 73
     6
 40
12.7
 49
6.35
 74
     0
 49
-1.27
 74
     0
 49
1.27
 74
     0
 49
-1.27
 74
     0
 49
1.27
 74
     0
 49
-1.27
 74
     0
  0
LTYPE
  5
60
330
5
100
AcDbSymbolTableRecord
100
AcDbLinetypeTableRecord
  2
CENTER
 70
     0
  3
Center ____ _ ____ _ ____ _ ____ _ ____ _ ____
 72
    65
 73
     4
 40
10.16
 49
6.35
 74
     0
 49
-1.27
 74
     0
 49
1.27
 74
     0
 49
-1.27
 74
     0
  0
LTYPE
  5
61
330
5
100
AcDbSymbolTableRecord
100
AcDbLinetypeTableRecord
  2
CENTERX2
 70
     0
  3
Center (2x) ________  __  ________  __  _____
 72
    65
 73
     4
 40
20.32
 49
12.7
 74
     0
 49
-2.54
 74
     0
 49
2.54
 74
     0
 49
-2.54
 74
     0
  0
LTYPE
  5
62
330
5
100
AcDbSymbolTableRecord
100
AcDbLinetypeTableRecord
  2
DOT2
 70
     0
  3
Dot (.5x) ........................................
 72
    65
 73
     2
 40
0.635
 49
0.0
 74
     0
 49
-0.635
 74
     0
  0
ENDTAB
  0
TABLE
  2
LAYER
  5
2
330
0
100
AcDbSymbolTable
 70
     6
  0
LAYER
  5
10
330
2
100
AcDbSymbolTableRecord
100
AcDbLayerTableRecord
  2
0
 70
     0
 62
     7
  6
Continuous
370
    -3
390
F
  0
LAYER
  5
63
330
2
100
AcDbSymbolTableRecord
100
AcDbLayerTableRecord
  2
SLD-0
 70
     0
 62
   179
  6
Continuous
370
    -3
390
F
  0
LAYER
  5
64
330
2
100
AcDbSymbolTableRecord
100
AcDbLayerTableRecord
  2
WIRE_BOND
 70
     0
 62
     6
  6
Continuous
370
   100
390
F
  0
LAYER
  5
65
330
2
100
AcDbSymbolTableRecord
100
AcDbLayerTableRecord
  2
HIGHLIGHT-BLUE
 70
     0
 62
     5
  6
Continuous
370
    70
390
F
  0
LAYER
  5
66
330
2
100
AcDbSymbolTableRecord
100
AcDbLayerTableRecord
  2
MANUAL_DIM
 70
     0
 62
   114
  6
Continuous
370
    -3
390
F
  0
LAYER
  5
67
330
2
100
AcDbSymbolTableRecord
100
AcDbLayerTableRecord
  2
TORQUE_9-10
 70
     0
 62
   155
  6
Continuous
370
    -3
390
F
  0
ENDTAB
  0
TABLE
  2
STYLE
  5
3
330
0
100
AcDbSymbolTable
 70
     5
  0
STYLE
  5
11
330
3
100
AcDbSymbolTableRecord
100
AcDbTextStyleTableRecord
  2
STANDARD
 70
     0
 40
0.0
 41
1.0
 50
0.0
 71
     0
 42
12.7
  3
GOTHIC.TTF
  4

1001
ACAD
1000
CENTURY GOTHIC
1071
       34
  0
STYLE
  5
73
330
3
100
AcDbSymbolTableRecord
100
AcDbTextStyleTableRecord
  2
SLDTEXTSTYLE0
 70
     0
 40
0.0
 41
0.913
 50
0.0
 71
     0
 42
12.7
  3
GOTHIC.TTF
  4

1001
ACAD
1000
Century Gothic
1071
      290
  0
STYLE
  5
9F
330
3
100
AcDbSymbolTableRecord
100
AcDbTextStyleTableRecord
  2
SLDTEXTSTYLE1
 70
     0
 40
0.0
 41
0.87
 50
0.0
 71
     0
 42
12.7
  3
ARIALN.TTF
  4

1001
ACAD
1000
Arial Narrow
1071
      290
  0
STYLE
  5
AA
330
3
100
AcDbSymbolTableRecord
100
AcDbTextStyleTableRecord
  2
SLDTEXTSTYLE2
 70
     0
 40
0.0
 41
0.8969072165
 50
0.0
 71
     0
 42
12.7
  3
ARIALN.TTF
  4

1001
ACAD
1000
Arial Narrow
1071
      290
  0
STYLE
  5
AF
330
3
100
AcDbSymbolTableRecord
100
AcDbTextStyleTableRecord
  2
SLDTEXTSTYLE3
 70
     0
 40
0.0
 41
0.8969072165
 50
0.0
 71
     0
 42
12.7
  3
ARIALN.TTF
  4
bigfont
1001
ACAD
1000
Arial Narrow
1071
      290
  0
ENDTAB
  0
TABLE
  2
VIEW
  5
6
330
0
100
AcDbSymbolTable
 70
     0
  0
ENDTAB
  0
TABLE
  2
UCS
  5
7
330
0
100
AcDbSymbolTable
 70
     0
  0
ENDTAB
  0
TABLE
  2
APPID
  5
9
330
0
100
AcDbSymbolTable
 70
     1
  0
APPID
  5
12
330
9
100
AcDbSymbolTableRecord
100
AcDbRegAppTableRecord
  2
ACAD
 70
     0
  0
ENDTAB
  0
TABLE
  2
DIMSTYLE
  5
A
330
0
100
AcDbSymbolTable
 70
     5
100
AcDbDimStyleTable
  0
DIMSTYLE
105
27
330
A
100
AcDbSymbolTableRecord
100
AcDbDimStyleTableRecord
  2
ISO-25
 70
     0
 41
2.5
 42
0.625
 43
3.75
 44
1.25
 73
     0
 74
     0
 77
     1
 78
     8
140
2.5
141
2.5
143
0.0393700787
147
0.625
171
     3
172
     1
178
     0
271
     2
272
     2
274
     3
278
    44
283
     0
284
     8
340
11
  0
DIMSTYLE
105
1A1
102
{ACAD_REACTORS
330
1A0
330
1B5
330
204
330
24B
330
28E
330
2A3
330
386
330
3BB
102
}
330
A
100
AcDbSymbolTableRecord
100
AcDbDimStyleTableRecord
  2
SLDDIMSTYLE0
 70
     0
 41
8.0
 44
0.0
 45
0.000000001
 78
    12
 79
     3
140
9.525
143
0.0393700787
147
2.38125
148
0.000000001
170
     1
173
     1
178
     0
271
     1
272
     2
276
     2
284
    12
340
73
  0
DIMSTYLE
105
260
102
{ACAD_REACTORS
330
25F
330
2D2
330
2E6
330
2FA
330
30E
330
39A
102
}
330
A
100
AcDbSymbolTableRecord
100
AcDbDimStyleTableRecord
  2
SLDDIMSTYLE1
 70
     0
 41
8.0
 44
0.0
 45
0.000000001
 78
     4
 79
     1
140
9.525
143
0.0393700787
147
2.38125
148
0.000000001
170
     1
173
     1
178
     0
271
     1
272
     2
276
     2
284
    12
340
73
  0
DIMSTYLE
105
3AF
102
{ACAD_REACTORS
330
3AE
102
}
330
A
100
AcDbSymbolTableRecord
100
AcDbDimStyleTableRecord
  2
SLDDIMSTYLE2
 70
     0
 41
8.0
 44
0.0
 45
0.000000001
 78
     4
 79
     1
140
9.525
141
0.0
147
2.38125
173
     1
178
     0
271
     2
272
     2
276
     2
284
    12
340
73
  0
DIMSTYLE
105
3D0
102
{ACAD_REACTORS
330
3CF
102
}
330
A
100
AcDbSymbolTableRecord
100
AcDbDimStyleTableRecord
  2
SLDDIMSTYLE3
 70
     0
 41
8.0
 44
0.0
 45
0.000000001
 78
     4
 79
     1
140
9.525
143
0.0393700787
147
2.38125
148
0.000000001
170
     1
173
     1
178
     0
271
     2
272
     2
276
     2
284
    12
340
73
  0
ENDTAB
  0
TABLE
  2
BLOCK_RECORD
  5
1
330
0
100
AcDbSymbolTable
 70
    21
  0
BLOCK_RECORD
  5
1F
330
1
100
AcDbSymbolTableRecord
100
AcDbBlockTableRecord
  2
*Model_Space
340
22
  0
BLOCK_RECORD
  5
1B
330
1
100
AcDbSymbolTableRecord
100
AcDbBlockTableRecord
  2
*Paper_Space
340
1E
  0
BLOCK_RECORD
  5
23
330
1
100
AcDbSymbolTableRecord
100
AcDbBlockTableRecord
  2
*Paper_Space0
340
26
  0
BLOCK_RECORD
  5
7B
330
1
100
AcDbSymbolTableRecord
100
AcDbBlockTableRecord
  2
SW_SYMBOL_MOD_COM
340
0
102
{BLKREFS
331
87
331
1C9
331
2B7
102
}
  0
BLOCK_RECORD
  5
1A2
330
1
100
AcDbSymbolTableRecord
100
AcDbBlockTableRecord
  2
_D
340
0
  0
BLOCK_RECORD
  5
1B6
330
1
100
AcDbSymbolTableRecord
100
AcDbBlockTableRecord
  2
_D_1
340
0
  0
BLOCK_RECORD
  5
1CA
330
1
100
AcDbSymbolTableRecord
100
AcDbBlockTableRecord
  2
SW_SYMBOL_MOD_CL
340
0
102
{BLKREFS
331
1CF
331
322
331
3E5
102
}
  0
BLOCK_RECORD
  5
205
330
1
100
AcDbSymbolTableRecord
100
AcDbBlockTableRecord
  2
_D_2
340
0
  0
BLOCK_RECORD
  5
24C
330
1
100
AcDbSymbolTableRecord
100
AcDbBlockTableRecord
  2
_D_3
340
0
  0
BLOCK_RECORD
  5
261
330
1
100
AcDbSymbolTableRecord
100
AcDbBlockTableRecord
  2
_D_4
340
0
  0
BLOCK_RECORD
  5
28F
330
1
100
AcDbSymbolTableRecord
100
AcDbBlockTableRecord
  2
_D_5
340
0
  0
BLOCK_RECORD
  5
2A4
330
1
100
AcDbSymbolTableRecord
100
AcDbBlockTableRecord
  2
_D_6
340
0
  0
BLOCK_RECORD
  5
2D3
330
1
100
AcDbSymbolTableRecord
100
AcDbBlockTableRecord
  2
_D_7
340
0
  0
BLOCK_RECORD
  5
2E7
330
1
100
AcDbSymbolTableRecord
100
AcDbBlockTableRecord
  2
_D_8
340
0
  0
BLOCK_RECORD
  5
2FB
330
1
100
AcDbSymbolTableRecord
100
AcDbBlockTableRecord
  2
_D_9
340
0
  0
BLOCK_RECORD
  5
30F
330
1
100
AcDbSymbolTableRecord
100
AcDbBlockTableRecord
  2
_D_10
340
0
  0
BLOCK_RECORD
  5
323
330
1
100
AcDbSymbolTableRecord
100
AcDbBlockTableRecord
  2
SW_CENTERMARKSYMBOL_0
340
0
102
{BLKREFS
331
32E
102
}
  0
BLOCK_RECORD
  5
387
330
1
100
AcDbSymbolTableRecord
100
AcDbBlockTableRecord
  2
_D_11
340
0
  0
BLOCK_RECORD
  5
39B
330
1
100
AcDbSymbolTableRecord
100
AcDbBlockTableRecord
  2
_D_12
340
0
  0
BLOCK_RECORD
  5
3B0
330
1
100
AcDbSymbolTableRecord
100
AcDbBlockTableRecord
  2
_D_13
340
0
  0
BLOCK_RECORD
  5
3BC
330
1
100
AcDbSymbolTableRecord
100
AcDbBlockTableRecord
  2
_D_14
340
0
  0
BLOCK_RECORD
  5
3D1
330
1
100
AcDbSymbolTableRecord
100
AcDbBlockTableRecord
  2
_D_15
340
0
  0
BLOCK_RECORD
  5
3E6
330
1
100
AcDbSymbolTableRecord
100
AcDbBlockTableRecord
  2
SW_CENTERMARKSYMBOL_1
340
0
102
{BLKREFS
331
3F1
102
}
  0
ENDTAB
  0
ENDSEC
  0
SECTION
  2
BLOCKS
  0
BLOCK
  5
20
330
1F
100
AcDbEntity
  8
0
100
AcDbBlockBegin
  2
*Model_Space
 70
     0
 10
0.0
 20
0.0
 30
0.0
  3
*Model_Space
  1

  0
ENDBLK
  5
21
330
1F
100
AcDbEntity
  8
0
100
AcDbBlockEnd
  0
BLOCK
  5
1C
330
1B
100
AcDbEntity
 67
     1
  8
0
100
AcDbBlockBegin
  2
*Paper_Space
 70
     0
 10
0.0
 20
0.0
 30
0.0
  3
*Paper_Space
  1

  0
ENDBLK
  5
1D
330
1B
100
AcDbEntity
 67
     1
  8
0
100
AcDbBlockEnd
  0
BLOCK
  5
24
330
23
100
AcDbEntity
  8
0
100
AcDbBlockBegin
  2
*Paper_Space0
 70
     0
 10
0.0
 20
0.0
 30
0.0
  3
*Paper_Space0
  1

  0
ENDBLK
  5
25
330
23
100
AcDbEntity
  8
0
100
AcDbBlockEnd
  0
BLOCK
  5
7C
330
7B
100
AcDbEntity
  8
0
100
AcDbBlockBegin
  2
SW_SYMBOL_MOD_COM
 70
     0
 10
0.0
 20
0.0
 30
0.0
  3
SW_SYMBOL_MOD_COM
  1

  0
CIRCLE
  5
7E
330
7B
100
AcDbEntity
  8
0
  6
Continuous
 62
     0
370
     0
100
AcDbCircle
 10
2000.0
 20
2000.0
 30
0.0
 40
2000.0
  0
LINE
  5
7F
330
7B
100
AcDbEntity
  8
0
  6
Continuous
 62
     0
370
     0
100
AcDbLine
 10
5000.0
 20
2000.0
 30
0.0
 11
6000.0
 21
2000.0
 31
0.0
  0
LINE
  5
80
330
7B
100
AcDbEntity
  8
0
  6
Continuous
 62
     0
370
     0
100
AcDbLine
 10
2000.0
 20
6000.0
 30
0.0
 11
2000.0
 21
5000.0
 31
0.0
  0
LINE
  5
81
330
7B
100
AcDbEntity
  8
0
  6
Continuous
 62
     0
370
     0
100
AcDbLine
 10
-2000.0
 20
2000.0
 30
0.0
 11
-1000.0
 21
2000.0
 31
0.0
  0
LINE
  5
82
330
7B
100
AcDbEntity
  8
0
  6
Continuous
 62
     0
370
     0
100
AcDbLine
 10
2000.0
 20
-2000.0
 30
0.0
 11
2000.0
 21
-1000.0
 31
0.0
  0
SOLID
  5
83
330
7B
100
AcDbEntity
  8
0
  6
Continuous
 62
     0
370
     0
100
AcDbTrace
 10
2000.0
 20
2000.0
 30
0.0
 11
0.0
 21
2000.0
 31
0.0
 12
2000.0
 22
4000.0
 32
0.0
 13
2000.0
 23
4000.0
 33
0.0
  0
SOLID
  5
84
330
7B
100
AcDbEntity
  8
0
  6
Continuous
 62
     0
370
     0
100
AcDbTrace
 10
2000.0
 20
2000.0
 30
0.0
 11
4000.0
 21
2000.0
 31
0.0
 12
2000.0
 22
0.0
 32
0.0
 13
2000.0
 23
0.0
 33
0.0
  0
HATCH
  5
85
330
7B
100
AcDbEntity
  8
0
  6
Continuous
 62
     0
100
AcDbHatch
 10
0.0
 20
0.0
 30
0.0
210
0.0
220
0.0
230
1.0
  2
SOLID
 70
     1
 71
     0
 91
        1
 92
        0
 93
        2
 72
     2
 10
2000.0
 20
2000.0
 40
2000.0
 50
90.0000000000002
 51
180.0000000000013
 73
     1
 72
     1
 10
0.0
 20
1999.999999999986
 11
1999.999999999993
 21
4000.0
 97
        0
 75
     0
 76
     1
 98
        1
 10
0.0
 20
0.0
  0
HATCH
  5
86
330
7B
100
AcDbEntity
  8
0
  6
Continuous
 62
     0
100
AcDbHatch
 10
0.0
 20
0.0
 30
0.0
210
0.0
220
0.0
230
1.0
  2
SOLID
 70
     1
 71
     0
 91
        1
 92
        0
 93
        2
 72
     2
 10
2000.0
 20
2000.0
 40
2000.0
 50
270.0000000000014
 51
360.0000000000016
 73
     1
 72
     1
 10
4000.0
 20
2000.000000000028
 11
2000.000000000021
 21
0.0
 97
        0
 75
     0
 76
     1
 98
        1
 10
0.0
 20
0.0
  0
ENDBLK
  5
7D
330
7B
100
AcDbEntity
  8
0
100
AcDbBlockEnd
  0
BLOCK
  5
1A3
330
1A2
100
AcDbEntity
  8
0
100
AcDbBlockBegin
  2
_D
 70
     0
 10
0.0
 20
0.0
 30
0.0
  3
_D
  1

  0
SOLID
  5
1A5
330
1A2
100
AcDbEntity
  8
SLD-0
100
AcDbTrace
 10
447.2432791024
 20
427.0678781254
 30
0.0
 11
448.2432791024
 21
435.0678781254
 31
0.0
 12
446.2432791024
 22
435.0678781254
 32
0.0
 13
446.2432791024
 23
435.0678781254
 33
0.0
  0
SOLID
  5
1A6
330
1A2
100
AcDbEntity
  8
SLD-0
100
AcDbTrace
 10
447.2432791024
 20
536.8878781254
 30
0.0
 11
446.2432791024
 21
528.8878781254
 31
0.0
 12
448.2432791024
 22
528.8878781254
 32
0.0
 13
448.2432791024
 23
528.8878781254
 33
0.0
  0
LINE
  5
1A7
330
1A2
100
AcDbEntity
  8
SLD-0
100
AcDbLine
 10
434.9313343644
 20
481.9778799881
 30
0.0
 11
432.0341467626
 21
481.9778799881
 31
0.0
  0
LINE
  5
1A8
330
1A2
100
AcDbEntity
  8
SLD-0
100
AcDbLine
 10
432.0341467626
 20
481.9778799881
 30
0.0
 11
432.0341467626
 21
466.8437130619
 31
0.0
  0
LINE
  5
1A9
330
1A2
100
AcDbEntity
  8
SLD-0
100
AcDbLine
 10
432.0341467626
 20
466.8437130619
 30
0.0
 11
434.9313343644
 21
466.8437130619
 31
0.0
  0
LINE
  5
1AA
330
1A2
100
AcDbEntity
  8
SLD-0
100
AcDbLine
 10
459.5552238404
 20
481.9778799881
 30
0.0
 11
462.4524114422
 21
481.9778799881
 31
0.0
  0
LINE
  5
1AB
330
1A2
100
AcDbEntity
  8
SLD-0
100
AcDbLine
 10
462.4524114422
 20
481.9778799881
 30
0.0
 11
462.4524114422
 21
466.8437130619
 31
0.0
  0
LINE
  5
1AC
330
1A2
100
AcDbEntity
  8
SLD-0
100
AcDbLine
 10
462.4524114422
 20
466.8437130619
 30
0.0
 11
459.5552238404
 21
466.8437130619
 31
0.0
  0
LINE
  5
1AD
330
1A2
100
AcDbEntity
  8
SLD-0
100
AcDbLine
 10
479.6367955639
 20
427.0678781254
 30
0.0
 11
444.1952791024
 21
427.0678781254
 31
0.0
  0
LINE
  5
1AE
330
1A2
100
AcDbEntity
  8
SLD-0
100
AcDbLine
 10
557.1585476192
 20
536.8878781254
 30
0.0
 11
444.1952791024
 21
536.8878781254
 31
0.0
  0
LINE
  5
1AF
330
1A2
100
AcDbEntity
  8
SLD-0
100
AcDbLine
 10
447.2432791024
 20
427.0678781254
 30
0.0
 11
447.2432791024
 21
464.9122524876
 31
0.0
  0
LINE
  5
1B0
330
1A2
100
AcDbEntity
  8
SLD-0
100
AcDbLine
 10
447.2432791024
 20
536.8878781254
 30
0.0
 11
447.2432791024
 21
499.0435037632
 31
0.0
  0
MTEXT
  5
1B1
330
1A2
100
AcDbEntity
  8
SLD-0
100
AcDbMText
 10
425.6268202096
 20
496.0760365214
 30
0.0
 40
9.525
 41
0.0
 71
     1
 72
     1
  1
 
  7
SLDTEXTSTYLE0
 73
     1
 44
1.0
  0
MTEXT
  5
1B2
330
1A2
100
AcDbEntity
  8
SLD-0
100
AcDbMText
 10
431.4123757884
 20
496.0760374528
 30
0.0
 40
9.525
 41
0.0
 71
     1
 72
     1
  1
109.8
  7
SLDTEXTSTYLE0
 73
     1
 44
1.0
  0
MTEXT
  5
1B3
330
1A2
100
AcDbEntity
  8
SLD-0
100
AcDbMText
 10
434.9313343644
 20
479.0104127463
 30
0.0
 40
9.525
 41
0.0
 71
     1
 72
     1
  1
4.32
  7
SLDTEXTSTYLE0
 73
     1
 44
1.0
  0
MTEXT
  5
1B4
330
1A2
100
AcDbEntity
  8
SLD-0
100
AcDbMText
 10
465.3495981127
 20
496.0760365214
 30
0.0
 40
9.525
 41
0.0
 71
     1
 72
     1
  1
 
  7
SLDTEXTSTYLE0
 73
     1
 44
1.0
  0
ENDBLK
  5
1A4
330
1A2
100
AcDbEntity
  8
0
100
AcDbBlockEnd
  0
BLOCK
  5
1B7
330
1B6
100
AcDbEntity
  8
0
100
AcDbBlockBegin
  2
_D_1
 70
     0
 10
0.0
 20
0.0
 30
0.0
  3
_D_1
  1

  0
SOLID
  5
1B9
330
1B6
100
AcDbEntity
  8
SLD-0
100
AcDbTrace
 10
487.2432791024
 20
379.4786622204
 30
0.0
 11
495.2432791024
 21
378.4786622204
 31
0.0
 12
495.2432791024
 22
380.4786622204
 32
0.0
 13
495.2432791024
 23
380.4786622204
 33
0.0
  0
SOLID
  5
1BA
330
1B6
100
AcDbEntity
  8
SLD-0
100
AcDbTrace
 10
647.5112631062
 20
379.4786622204
 30
0.0
 11
639.5112631062
 21
380.4786622204
 31
0.0
 12
639.5112631062
 22
378.4786622204
 32
0.0
 13
639.5112631062
 23
378.4786622204
 33
0.0
  0
LINE
  5
1BB
330
1B6
100
AcDbEntity
  8
SLD-0
100
AcDbLine
 10
555.0653263663
 20
379.4786640831
 30
0.0
 11
552.1681387645
 21
379.4786640831
 31
0.0
  0
LINE
  5
1BC
330
1B6
100
AcDbEntity
  8
SLD-0
100
AcDbLine
 10
552.1681387645
 20
379.4786640831
 30
0.0
 11
552.1681387645
 21
364.3444971569
 31
0.0
  0
LINE
  5
1BD
330
1B6
100
AcDbEntity
  8
SLD-0
100
AcDbLine
 10
552.1681387645
 20
364.3444971569
 30
0.0
 11
555.0653263663
 21
364.3444971569
 31
0.0
  0
LINE
  5
1BE
330
1B6
100
AcDbEntity
  8
SLD-0
100
AcDbLine
 10
579.6892158424
 20
379.4786640831
 30
0.0
 11
582.5864034441
 21
379.4786640831
 31
0.0
  0
LINE
  5
1BF
330
1B6
100
AcDbEntity
  8
SLD-0
100
AcDbLine
 10
582.5864034441
 20
379.4786640831
 30
0.0
 11
582.5864034441
 21
364.3444971569
 31
0.0
  0
LINE
  5
1C0
330
1B6
100
AcDbEntity
  8
SLD-0
100
AcDbLine
 10
582.5864034441
 20
364.3444971569
 30
0.0
 11
579.6892158424
 21
364.3444971569
 31
0.0
  0
LINE
  5
1C1
330
1B6
100
AcDbEntity
  8
SLD-0
100
AcDbLine
 10
487.2432791024
 20
419.3335568134
 30
0.0
 11
487.2432791024
 21
376.4306622204
 31
0.0
  0
LINE
  5
1C2
330
1B6
100
AcDbEntity
  8
SLD-0
100
AcDbLine
 10
647.5112631062
 20
419.8129641233
 30
0.0
 11
647.5112631062
 21
376.4306622204
 31
0.0
  0
LINE
  5
1C3
330
1B6
100
AcDbEntity
  8
SLD-0
100
AcDbLine
 10
487.2432791024
 20
379.4786622204
 30
0.0
 11
543.8295748489
 21
379.4786622204
 31
0.0
  0
LINE
  5
1C4
330
1B6
100
AcDbEntity
  8
SLD-0
100
AcDbLine
 10
647.5112631062
 20
379.4786622204
 30
0.0
 11
590.9249673598
 21
379.4786622204
 31
0.0
  0
MTEXT
  5
1C5
330
1B6
100
AcDbEntity
  8
SLD-0
100
AcDbMText
 10
545.7608122115
 20
393.5768206164
 30
0.0
 40
9.525
 41
0.0
 71
     1
 72
     1
  1
 
  7
SLDTEXTSTYLE0
 73
     1
 44
1.0
  0
MTEXT
  5
1C6
330
1B6
100
AcDbEntity
  8
SLD-0
100
AcDbMText
 10
551.5463677903
 20
393.5768215478
 30
0.0
 40
9.525
 41
0.0
 71
     1
 72
     1
  1
160.3
  7
SLDTEXTSTYLE0
 73
     1
 44
1.0
  0
MTEXT
  5
1C7
330
1B6
100
AcDbEntity
  8
SLD-0
100
AcDbMText
 10
555.0653263663
 20
376.5111968413
 30
0.0
 40
9.525
 41
0.0
 71
     1
 72
     1
  1
6.31
  7
SLDTEXTSTYLE0
 73
     1
 44
1.0
  0
MTEXT
  5
1C8
330
1B6
100
AcDbEntity
  8
SLD-0
100
AcDbMText
 10
585.4835901146
 20
393.5768206164
 30
0.0
 40
9.525
 41
0.0
 71
     1
 72
     1
  1
 
  7
SLDTEXTSTYLE0
 73
     1
 44
1.0
  0
ENDBLK
  5
1B8
330
1B6
100
AcDbEntity
  8
0
100
AcDbBlockEnd
  0
BLOCK
  5
1CB
330
1CA
100
AcDbEntity
  8
0
100
AcDbBlockBegin
  2
SW_SYMBOL_MOD_CL
 70
     0
 10
0.0
 20
0.0
 30
0.0
  3
SW_SYMBOL_MOD_CL
  1

  0
MTEXT
  5
1CD
330
1CA
100
AcDbEntity
  8
SLD-0
 62
     0
100
AcDbMText
 10
1600.0
 20
2400.0
 30
0.0
 40
3131.498470948
 41
0.0
 71
     5
 72
     1
  1
C
  7
SLDTEXTSTYLE0
 73
     1
 44
1.0
  0
MTEXT
  5
1CE
330
1CA
100
AcDbEntity
  8
SLD-0
 62
     0
100
AcDbMText
 10
2400.0
 20
1200.0
 30
0.0
 40
3131.498470948
 41
0.0
 71
     5
 72
     1
  1
L
  7
SLDTEXTSTYLE0
 73
     1
 44
1.0
  0
ENDBLK
  5
1CC
330
1CA
100
AcDbEntity
  8
0
100
AcDbBlockEnd
  0
BLOCK
  5
206
330
205
100
AcDbEntity
  8
0
100
AcDbBlockBegin
  2
_D_2
 70
     0
 10
0.0
 20
0.0
 30
0.0
  3
_D_2
  1

  0
SOLID
  5
208
330
205
100
AcDbEntity
  8
SLD-0
100
AcDbTrace
 10
958.0340596012
 20
658.2741469417
 30
0.0
 11
957.0340596012
 21
650.2741469417
 31
0.0
 12
959.0340596012
 22
650.2741469417
 32
0.0
 13
959.0340596012
 23
650.2741469417
 33
0.0
  0
SOLID
  5
209
330
205
100
AcDbEntity
  8
SLD-0
100
AcDbTrace
 10
958.0340596012
 20
426.8613677454
 30
0.0
 11
959.0340596012
 21
434.8613677454
 31
0.0
 12
957.0340596012
 22
434.8613677454
 32
0.0
 13
957.0340596012
 23
434.8613677454
 33
0.0
  0
LINE
  5
20A
330
205
100
AcDbEntity
  8
SLD-0
100
AcDbLine
 10
945.7221148632
 20
542.5677592062
 30
0.0
 11
942.8249272614
 21
542.5677592062
 31
0.0
  0
LINE
  5
20B
330
205
100
AcDbEntity
  8
SLD-0
100
AcDbLine
 10
942.8249272614
 20
542.5677592062
 30
0.0
 11
942.8249272614
 21
527.4335922801
 31
0.0
  0
LINE
  5
20C
330
205
100
AcDbEntity
  8
SLD-0
100
AcDbLine
 10
942.8249272614
 20
527.4335922801
 30
0.0
 11
945.7221148632
 21
527.4335922801
 31
0.0
  0
LINE
  5
20D
330
205
100
AcDbEntity
  8
SLD-0
100
AcDbLine
 10
970.3460043392
 20
542.5677592062
 30
0.0
 11
973.243191941
 21
542.5677592062
 31
0.0
  0
LINE
  5
20E
330
205
100
AcDbEntity
  8
SLD-0
100
AcDbLine
 10
973.243191941
 20
542.5677592062
 30
0.0
 11
973.243191941
 21
527.4335922801
 31
0.0
  0
LINE
  5
20F
330
205
100
AcDbEntity
  8
SLD-0
100
AcDbLine
 10
973.243191941
 20
527.4335922801
 30
0.0
 11
970.3460043392
 21
527.4335922801
 31
0.0
  0
LINE
  5
210
330
205
100
AcDbEntity
  8
SLD-0
100
AcDbLine
 10
915.3448597684
 20
658.2741469417
 30
0.0
 11
961.0820596012
 21
658.2741469417
 31
0.0
  0
LINE
  5
211
330
205
100
AcDbEntity
  8
SLD-0
100
AcDbLine
 10
915.3126695718
 20
426.8613677454
 30
0.0
 11
961.0820596012
 21
426.8613677454
 31
0.0
  0
LINE
  5
212
330
205
100
AcDbEntity
  8
SLD-0
100
AcDbLine
 10
958.0340596012
 20
658.2741469417
 30
0.0
 11
958.0340596012
 21
559.6333829813
 31
0.0
  0
LINE
  5
213
330
205
100
AcDbEntity
  8
SLD-0
100
AcDbLine
 10
958.0340596012
 20
426.8613677454
 30
0.0
 11
958.0340596012
 21
525.5021317058
 31
0.0
  0
MTEXT
  5
214
330
205
100
AcDbEntity
  8
SLD-0
100
AcDbMText
 10
936.4176007084
 20
556.6659157396
 30
0.0
 40
9.525
 41
0.0
 71
     1
 72
     1
  1
 
  7
SLDTEXTSTYLE0
 73
     1
 44
1.0
  0
MTEXT
  5
215
330
205
100
AcDbEntity
  8
SLD-0
100
AcDbMText
 10
942.2031562871
 20
556.6659166709
 30
0.0
 40
9.525
 41
0.0
 71
     1
 72
     1
  1
231.4
  7
SLDTEXTSTYLE0
 73
     1
 44
1.0
  0
MTEXT
  5
216
330
205
100
AcDbEntity
  8
SLD-0
100
AcDbMText
 10
945.7221148632
 20
539.6002919645
 30
0.0
 40
9.525
 41
0.0
 71
     1
 72
     1
  1
9.11
  7
SLDTEXTSTYLE0
 73
     1
 44
1.0
  0
MTEXT
  5
217
330
205
100
AcDbEntity
  8
SLD-0
100
AcDbMText
 10
976.1403786115
 20
556.6659157396
 30
0.0
 40
9.525
 41
0.0
 71
     1
 72
     1
  1
 
  7
SLDTEXTSTYLE0
 73
     1
 44
1.0
  0
ENDBLK
  5
207
330
205
100
AcDbEntity
  8
0
100
AcDbBlockEnd
  0
BLOCK
  5
24D
330
24C
100
AcDbEntity
  8
0
100
AcDbBlockBegin
  2
_D_3
 70
     0
 10
0.0
 20
0.0
 30
0.0
  3
_D_3
  1

  0
SOLID
  5
24F
330
24C
100
AcDbEntity
  8
SLD-0
100
AcDbTrace
 10
88.7319121573
 20
670.5351580886
 30
0.0
 11
87.7319121573
 21
662.5351580886
 31
0.0
 12
89.7319121573
 22
662.5351580886
 32
0.0
 13
89.7319121573
 23
662.5351580886
 33
0.0
  0
SOLID
  5
250
330
24C
100
AcDbEntity
  8
SLD-0
100
AcDbTrace
 10
88.7319121573
 20
414.6005981622
 30
0.0
 11
89.7319121573
 21
422.6005981622
 31
0.0
 12
87.7319121573
 22
422.6005981622
 32
0.0
 13
87.7319121573
 23
422.6005981622
 33
0.0
  0
LINE
  5
251
330
24C
100
AcDbEntity
  8
SLD-0
100
AcDbLine
 10
72.9010097746
 20
542.5678799881
 30
0.0
 11
70.0038221728
 21
542.5678799881
 31
0.0
  0
LINE
  5
252
330
24C
100
AcDbEntity
  8
SLD-0
100
AcDbLine
 10
70.0038221728
 20
542.5678799881
 30
0.0
 11
70.0038221728
 21
527.4337130619
 31
0.0
  0
LINE
  5
253
330
24C
100
AcDbEntity
  8
SLD-0
100
AcDbLine
 10
70.0038221728
 20
527.4337130619
 30
0.0
 11
72.9010097746
 21
527.4337130619
 31
0.0
  0
LINE
  5
254
330
24C
100
AcDbEntity
  8
SLD-0
100
AcDbLine
 10
104.56281454
 20
542.5678799881
 30
0.0
 11
107.4600021418
 21
542.5678799881
 31
0.0
  0
LINE
  5
255
330
24C
100
AcDbEntity
  8
SLD-0
100
AcDbLine
 10
107.4600021418
 20
542.5678799881
 30
0.0
 11
107.4600021418
 21
527.4337130619
 31
0.0
  0
LINE
  5
256
330
24C
100
AcDbEntity
  8
SLD-0
100
AcDbLine
 10
107.4600021418
 20
527.4337130619
 30
0.0
 11
104.56281454
 21
527.4337130619
 31
0.0
  0
LINE
  5
257
330
24C
100
AcDbEntity
  8
SLD-0
100
AcDbLine
 10
202.3831885529
 20
670.5351580886
 30
0.0
 11
85.6839121573
 21
670.5351580886
 31
0.0
  0
LINE
  5
258
330
24C
100
AcDbEntity
  8
SLD-0
100
AcDbLine
 10
201.9499211295
 20
414.6005981622
 30
0.0
 11
85.6839121573
 21
414.6005981622
 31
0.0
  0
LINE
  5
259
330
24C
100
AcDbEntity
  8
SLD-0
100
AcDbLine
 10
88.7319121573
 20
670.5351580886
 30
0.0
 11
88.7319121573
 21
559.6335037632
 31
0.0
  0
LINE
  5
25A
330
24C
100
AcDbEntity
  8
SLD-0
100
AcDbLine
 10
88.7319121573
 20
414.6005981622
 30
0.0
 11
88.7319121573
 21
525.5022524876
 31
0.0
  0
MTEXT
  5
25B
330
24C
100
AcDbEntity
  8
SLD-0
100
AcDbMText
 10
63.5964956198
 20
556.6660365214
 30
0.0
 40
9.525
 41
0.0
 71
     1
 72
     1
  1
 
  7
SLDTEXTSTYLE0
 73
     1
 44
1.0
  0
MTEXT
  5
25C
330
24C
100
AcDbEntity
  8
SLD-0
100
AcDbMText
 10
72.9010088432
 20
556.6660374528
 30
0.0
 40
9.525
 41
0.0
 71
     1
 72
     1
  1
255.9
  7
SLDTEXTSTYLE0
 73
     1
 44
1.0
  0
MTEXT
  5
25D
330
24C
100
AcDbEntity
  8
SLD-0
100
AcDbMText
 10
72.9010097746
 20
539.6004127463
 30
0.0
 40
9.525
 41
0.0
 71
     1
 72
     1
  1
10.08
  7
SLDTEXTSTYLE0
 73
     1
 44
1.0
  0
MTEXT
  5
25E
330
24C
100
AcDbEntity
  8
SLD-0
100
AcDbMText
 10
110.3571888123
 20
556.6660365214
 30
0.0
 40
9.525
 41
0.0
 71
     1
 72
     1
  1
 
  7
SLDTEXTSTYLE0
 73
     1
 44
1.0
  0
ENDBLK
  5
24E
330
24C
100
AcDbEntity
  8
0
100
AcDbBlockEnd
  0
BLOCK
  5
262
330
261
100
AcDbEntity
  8
0
100
AcDbBlockBegin
  2
_D_4
 70
     0
 10
0.0
 20
0.0
 30
0.0
  3
_D_4
  1

  0
SOLID
  5
264
330
261
100
AcDbEntity
  8
SLD-0
100
AcDbTrace
 10
366.1840446402
 20
658.0678781254
 30
0.0
 11
365.1840446402
 21
650.0678781254
 31
0.0
 12
367.1840446402
 22
650.0678781254
 32
0.0
 13
367.1840446402
 23
650.0678781254
 33
0.0
  0
SOLID
  5
265
330
261
100
AcDbEntity
  8
SLD-0
100
AcDbTrace
 10
366.1840446402
 20
427.0678781254
 30
0.0
 11
367.1840446402
 21
435.0678781254
 31
0.0
 12
365.1840446402
 22
435.0678781254
 32
0.0
 13
365.1840446402
 23
435.0678781254
 33
0.0
  0
LINE
  5
266
330
261
100
AcDbEntity
  8
SLD-0
100
AcDbLine
 10
353.8720999022
 20
542.5678799881
 30
0.0
 11
350.9749123004
 21
542.5678799881
 31
0.0
  0
LINE
  5
267
330
261
100
AcDbEntity
  8
SLD-0
100
AcDbLine
 10
350.9749123004
 20
542.5678799881
 30
0.0
 11
350.9749123004
 21
527.4337130619
 31
0.0
  0
LINE
  5
268
330
261
100
AcDbEntity
  8
SLD-0
100
AcDbLine
 10
350.9749123004
 20
527.4337130619
 30
0.0
 11
353.8720999022
 21
527.4337130619
 31
0.0
  0
LINE
  5
269
330
261
100
AcDbEntity
  8
SLD-0
100
AcDbLine
 10
378.4959893783
 20
542.5678799881
 30
0.0
 11
381.39317698
 21
542.5678799881
 31
0.0
  0
LINE
  5
26A
330
261
100
AcDbEntity
  8
SLD-0
100
AcDbLine
 10
381.39317698
 20
542.5678799881
 30
0.0
 11
381.39317698
 21
527.4337130619
 31
0.0
  0
LINE
  5
26B
330
261
100
AcDbEntity
  8
SLD-0
100
AcDbLine
 10
381.39317698
 20
527.4337130619
 30
0.0
 11
378.4959893783
 21
527.4337130619
 31
0.0
  0
LINE
  5
26C
330
261
100
AcDbEntity
  8
SLD-0
100
AcDbLine
 10
318.2676345142
 20
658.0678781254
 30
0.0
 11
369.2320446402
 21
658.0678781254
 31
0.0
  0
LINE
  5
26D
330
261
100
AcDbEntity
  8
SLD-0
100
AcDbLine
 10
318.4404370804
 20
427.0678781254
 30
0.0
 11
369.2320446402
 21
427.0678781254
 31
0.0
  0
LINE
  5
26E
330
261
100
AcDbEntity
  8
SLD-0
100
AcDbLine
 10
366.1840446402
 20
658.0678781254
 30
0.0
 11
366.1840446402
 21
559.6335037632
 31
0.0
  0
LINE
  5
26F
330
261
100
AcDbEntity
  8
SLD-0
100
AcDbLine
 10
366.1840446402
 20
427.0678781254
 30
0.0
 11
366.1840446402
 21
525.5022524876
 31
0.0
  0
MTEXT
  5
270
330
261
100
AcDbEntity
  8
SLD-0
100
AcDbMText
 10
344.5675857474
 20
556.6660365214
 30
0.0
 40
9.525
 41
0.0
 71
     1
 72
     1
  1
 
  7
SLDTEXTSTYLE0
 73
     1
 44
1.0
  0
MTEXT
  5
271
330
261
100
AcDbEntity
  8
SLD-0
100
AcDbMText
 10
350.3531413262
 20
556.6660374528
 30
0.0
 40
9.525
 41
0.0
 71
     1
 72
     1
  1
231.0
  7
SLDTEXTSTYLE0
 73
     1
 44
1.0
  0
MTEXT
  5
272
330
261
100
AcDbEntity
  8
SLD-0
100
AcDbMText
 10
353.8720999022
 20
539.6004127463
 30
0.0
 40
9.525
 41
0.0
 71
     1
 72
     1
  1
9.09
  7
SLDTEXTSTYLE0
 73
     1
 44
1.0
  0
MTEXT
  5
273
330
261
100
AcDbEntity
  8
SLD-0
100
AcDbMText
 10
384.2903636505
 20
556.6660365214
 30
0.0
 40
9.525
 41
0.0
 71
     1
 72
     1
  1
 
  7
SLDTEXTSTYLE0
 73
     1
 44
1.0
  0
ENDBLK
  5
263
330
261
100
AcDbEntity
  8
0
100
AcDbBlockEnd
  0
BLOCK
  5
290
330
28F
100
AcDbEntity
  8
0
100
AcDbBlockBegin
  2
_D_5
 70
     0
 10
0.0
 20
0.0
 30
0.0
  3
_D_5
  1

  0
SOLID
  5
292
330
28F
100
AcDbEntity
  8
SLD-0
100
AcDbTrace
 10
671.8536204355
 20
133.9998407635
 30
0.0
 11
672.8536204355
 21
141.9998407635
 31
0.0
 12
670.8536204355
 22
141.9998407635
 32
0.0
 13
670.8536204355
 23
141.9998407635
 33
0.0
  0
SOLID
  5
293
330
28F
100
AcDbEntity
  8
SLD-0
100
AcDbTrace
 10
671.8536204355
 20
183.4998407635
 30
0.0
 11
670.8536204355
 21
175.4998407635
 31
0.0
 12
672.8536204355
 22
175.4998407635
 32
0.0
 13
672.8536204355
 23
175.4998407635
 33
0.0
  0
LINE
  5
294
330
28F
100
AcDbEntity
  8
SLD-0
100
AcDbLine
 10
694.9518466782
 20
212.1319222401
 30
0.0
 11
692.0546590764
 21
212.1319222401
 31
0.0
  0
LINE
  5
295
330
28F
100
AcDbEntity
  8
SLD-0
100
AcDbLine
 10
692.0546590764
 20
212.1319222401
 30
0.0
 11
692.0546590764
 21
196.997755314
 31
0.0
  0
LINE
  5
296
330
28F
100
AcDbEntity
  8
SLD-0
100
AcDbLine
 10
692.0546590764
 20
196.997755314
 30
0.0
 11
694.9518466782
 21
196.997755314
 31
0.0
  0
LINE
  5
297
330
28F
100
AcDbEntity
  8
SLD-0
100
AcDbLine
 10
719.5757361542
 20
212.1319222401
 30
0.0
 11
722.472923756
 21
212.1319222401
 31
0.0
  0
LINE
  5
298
330
28F
100
AcDbEntity
  8
SLD-0
100
AcDbLine
 10
722.472923756
 20
212.1319222401
 30
0.0
 11
722.472923756
 21
196.997755314
 31
0.0
  0
LINE
  5
299
330
28F
100
AcDbEntity
  8
SLD-0
100
AcDbLine
 10
722.472923756
 20
196.997755314
 30
0.0
 11
719.5757361542
 21
196.997755314
 31
0.0
  0
LINE
  5
29A
330
28F
100
AcDbEntity
  8
SLD-0
100
AcDbLine
 10
605.9981643672
 20
133.9998407635
 30
0.0
 11
674.9016204355
 21
133.9998407635
 31
0.0
  0
LINE
  5
29B
330
28F
100
AcDbEntity
  8
SLD-0
100
AcDbLine
 10
567.3141236944
 20
183.4998407635
 30
0.0
 11
674.9016204355
 21
183.4998407635
 31
0.0
  0
LINE
  5
29C
330
28F
100
AcDbEntity
  8
SLD-0
100
AcDbLine
 10
679.8536204355
 20
212.1319203775
 30
0.0
 11
671.8536204355
 21
212.1319203775
 31
0.0
  0
LINE
  5
29D
330
28F
100
AcDbEntity
  8
SLD-0
100
AcDbLine
 10
671.8536204355
 20
212.1319203775
 30
0.0
 11
671.8536204355
 21
183.4998407635
 31
0.0
  0
LINE
  5
29E
330
28F
100
AcDbEntity
  8
SLD-0
100
AcDbLine
 10
671.8536204355
 20
133.9998407635
 30
0.0
 11
671.8536204355
 21
183.4998407635
 31
0.0
  0
MTEXT
  5
29F
330
28F
100
AcDbEntity
  8
SLD-0
100
AcDbMText
 10
685.6473325234
 20
226.2300787735
 30
0.0
 40
9.525
 41
0.0
 71
     1
 72
     1
  1
 
  7
SLDTEXTSTYLE0
 73
     1
 44
1.0
  0
MTEXT
  5
2A0
330
28F
100
AcDbEntity
  8
SLD-0
100
AcDbMText
 10
694.9518457468
 20
226.2300797048
 30
0.0
 40
9.525
 41
0.0
 71
     1
 72
     1
  1
49.5
  7
SLDTEXTSTYLE0
 73
     1
 44
1.0
  0
MTEXT
  5
2A1
330
28F
100
AcDbEntity
  8
SLD-0
100
AcDbMText
 10
694.9518466782
 20
209.1644549984
 30
0.0
 40
9.525
 41
0.0
 71
     1
 72
     1
  1
1.95
  7
SLDTEXTSTYLE0
 73
     1
 44
1.0
  0
MTEXT
  5
2A2
330
28F
100
AcDbEntity
  8
SLD-0
100
AcDbMText
 10
725.3701104264
 20
226.2300787735
 30
0.0
 40
9.525
 41
0.0
 71
     1
 72
     1
  1
 
  7
SLDTEXTSTYLE0
 73
     1
 44
1.0
  0
ENDBLK
  5
291
330
28F
100
AcDbEntity
  8
0
100
AcDbBlockEnd
  0
BLOCK
  5
2A5
330
2A4
100
AcDbEntity
  8
0
100
AcDbBlockBegin
  2
_D_6
 70
     0
 10
0.0
 20
0.0
 30
0.0
  3
_D_6
  1

  0
SOLID
  5
2A7
330
2A4
100
AcDbEntity
  8
SLD-0
100
AcDbTrace
 10
647.4824397216
 20
313.899713398
 30
0.0
 11
639.4824397216
 21
314.899713398
 31
0.0
 12
639.4824397216
 22
312.899713398
 32
0.0
 13
639.4824397216
 23
312.899713398
 33
0.0
  0
SOLID
  5
2A8
330
2A4
100
AcDbEntity
  8
SLD-0
100
AcDbTrace
 10
562.3924397215
 20
313.899713398
 30
0.0
 11
570.3924397215
 21
312.899713398
 31
0.0
 12
570.3924397215
 22
314.899713398
 32
0.0
 13
570.3924397215
 23
314.899713398
 33
0.0
  0
LINE
  5
2A9
330
2A4
100
AcDbEntity
  8
SLD-0
100
AcDbLine
 10
592.6254949835
 20
313.8997152606
 30
0.0
 11
589.7283073817
 21
313.8997152606
 31
0.0
  0
LINE
  5
2AA
330
2A4
100
AcDbEntity
  8
SLD-0
100
AcDbLine
 10
589.7283073817
 20
313.8997152606
 30
0.0
 11
589.7283073817
 21
298.7655483345
 31
0.0
  0
LINE
  5
2AB
330
2A4
100
AcDbEntity
  8
SLD-0
100
AcDbLine
 10
589.7283073817
 20
298.7655483345
 30
0.0
 11
592.6254949835
 21
298.7655483345
 31
0.0
  0
LINE
  5
2AC
330
2A4
100
AcDbEntity
  8
SLD-0
100
AcDbLine
 10
617.2493844596
 20
313.8997152606
 30
0.0
 11
620.1465720614
 21
313.8997152606
 31
0.0
  0
LINE
  5
2AD
330
2A4
100
AcDbEntity
  8
SLD-0
100
AcDbLine
 10
620.1465720614
 20
313.8997152606
 30
0.0
 11
620.1465720614
 21
298.7655483345
 31
0.0
  0
LINE
  5
2AE
330
2A4
100
AcDbEntity
  8
SLD-0
100
AcDbLine
 10
620.1465720614
 20
298.7655483345
 30
0.0
 11
617.2493844596
 21
298.7655483345
 31
0.0
  0
LINE
  5
2AF
330
2A4
100
AcDbEntity
  8
SLD-0
100
AcDbLine
 10
647.4824397216
 20
268.3527866058
 30
0.0
 11
647.4824397216
 21
316.947713398
 31
0.0
  0
LINE
  5
2B0
330
2A4
100
AcDbEntity
  8
SLD-0
100
AcDbLine
 10
562.3924397216
 20
188.3843791442
 30
0.0
 11
562.3924397215
 21
316.947713398
 31
0.0
  0
LINE
  5
2B1
330
2A4
100
AcDbEntity
  8
SLD-0
100
AcDbLine
 10
647.4824397216
 20
313.899713398
 30
0.0
 11
628.485135977
 21
313.899713398
 31
0.0
  0
LINE
  5
2B2
330
2A4
100
AcDbEntity
  8
SLD-0
100
AcDbLine
 10
562.3924397215
 20
313.899713398
 30
0.0
 11
581.3897434661
 21
313.899713398
 31
0.0
  0
MTEXT
  5
2B3
330
2A4
100
AcDbEntity
  8
SLD-0
100
AcDbMText
 10
583.3209808287
 20
327.997871794
 30
0.0
 40
9.525
 41
0.0
 71
     1
 72
     1
  1
 
  7
SLDTEXTSTYLE0
 73
     1
 44
1.0
  0
MTEXT
  5
2B4
330
2A4
100
AcDbEntity
  8
SLD-0
100
AcDbMText
 10
592.6254940522
 20
327.9978727253
 30
0.0
 40
9.525
 41
0.0
 71
     1
 72
     1
  1
85.1
  7
SLDTEXTSTYLE0
 73
     1
 44
1.0
  0
MTEXT
  5
2B5
330
2A4
100
AcDbEntity
  8
SLD-0
100
AcDbMText
 10
592.6254949835
 20
310.9322480189
 30
0.0
 40
9.525
 41
0.0
 71
     1
 72
     1
  1
3.35
  7
SLDTEXTSTYLE0
 73
     1
 44
1.0
  0
MTEXT
  5
2B6
330
2A4
100
AcDbEntity
  8
SLD-0
100
AcDbMText
 10
623.0437587318
 20
327.997871794
 30
0.0
 40
9.525
 41
0.0
 71
     1
 72
     1
  1
 
  7
SLDTEXTSTYLE0
 73
     1
 44
1.0
  0
ENDBLK
  5
2A6
330
2A4
100
AcDbEntity
  8
0
100
AcDbBlockEnd
  0
BLOCK
  5
2D4
330
2D3
100
AcDbEntity
  8
0
100
AcDbBlockBegin
  2
_D_7
 70
     0
 10
0.0
 20
0.0
 30
0.0
  3
_D_7
  1

  0
SOLID
  5
2D6
330
2D3
100
AcDbEntity
  8
SLD-0
100
AcDbTrace
 10
375.2432791024
 20
751.224710572
 30
0.0
 11
376.2432791024
 21
759.224710572
 31
0.0
 12
374.2432791024
 22
759.224710572
 32
0.0
 13
374.2432791024
 23
759.224710572
 33
0.0
  0
SOLID
  5
2D7
330
2D3
100
AcDbEntity
  8
SLD-0
100
AcDbTrace
 10
375.2432791024
 20
923.272710572
 30
0.0
 11
374.2432791024
 21
915.272710572
 31
0.0
 12
376.2432791024
 22
915.272710572
 32
0.0
 13
376.2432791024
 23
915.272710572
 33
0.0
  0
LINE
  5
2D8
330
2D3
100
AcDbEntity
  8
SLD-0
100
AcDbLine
 10
362.9313343644
 20
837.2487124346
 30
0.0
 11
360.0341467626
 21
837.2487124346
 31
0.0
  0
LINE
  5
2D9
330
2D3
100
AcDbEntity
  8
SLD-0
100
AcDbLine
 10
360.0341467626
 20
837.2487124346
 30
0.0
 11
360.0341467626
 21
822.1145455085
 31
0.0
  0
LINE
  5
2DA
330
2D3
100
AcDbEntity
  8
SLD-0
100
AcDbLine
 10
360.0341467626
 20
822.1145455085
 30
0.0
 11
362.9313343644
 21
822.1145455085
 31
0.0
  0
LINE
  5
2DB
330
2D3
100
AcDbEntity
  8
SLD-0
100
AcDbLine
 10
387.5552238404
 20
837.2487124346
 30
0.0
 11
390.4524114422
 21
837.2487124346
 31
0.0
  0
LINE
  5
2DC
330
2D3
100
AcDbEntity
  8
SLD-0
100
AcDbLine
 10
390.4524114422
 20
837.2487124346
 30
0.0
 11
390.4524114422
 21
822.1145455085
 31
0.0
  0
LINE
  5
2DD
330
2D3
100
AcDbEntity
  8
SLD-0
100
AcDbLine
 10
390.4524114422
 20
822.1145455085
 30
0.0
 11
387.5552238404
 21
822.1145455085
 31
0.0
  0
LINE
  5
2DE
330
2D3
100
AcDbEntity
  8
SLD-0
100
AcDbLine
 10
535.7689069459
 20
751.224710572
 30
0.0
 11
372.1952791024
 21
751.224710572
 31
0.0
  0
LINE
  5
2DF
330
2D3
100
AcDbEntity
  8
SLD-0
100
AcDbLine
 10
539.741509079
 20
923.272710572
 30
0.0
 11
372.1952791024
 21
923.272710572
 31
0.0
  0
LINE
  5
2E0
330
2D3
100
AcDbEntity
  8
SLD-0
100
AcDbLine
 10
375.2432791024
 20
751.224710572
 30
0.0
 11
375.2432791024
 21
820.1830849342
 31
0.0
  0
LINE
  5
2E1
330
2D3
100
AcDbEntity
  8
SLD-0
100
AcDbLine
 10
375.2432791024
 20
923.272710572
 30
0.0
 11
375.2432791024
 21
854.3143362098
 31
0.0
  0
MTEXT
  5
2E2
330
2D3
100
AcDbEntity
  8
SLD-0
100
AcDbMText
 10
353.6268202096
 20
851.346868968
 30
0.0
 40
9.525
 41
0.0
 71
     1
 72
     1
  1
 
  7
SLDTEXTSTYLE0
 73
     1
 44
1.0
  0
MTEXT
  5
2E3
330
2D3
100
AcDbEntity
  8
SLD-0
100
AcDbMText
 10
359.4123757884
 20
851.3468698994
 30
0.0
 40
9.525
 41
0.0
 71
     1
 72
     1
  1
172.0
  7
SLDTEXTSTYLE0
 73
     1
 44
1.0
  0
MTEXT
  5
2E4
330
2D3
100
AcDbEntity
  8
SLD-0
100
AcDbMText
 10
362.9313343644
 20
834.2812451929
 30
0.0
 40
9.525
 41
0.0
 71
     1
 72
     1
  1
6.77
  7
SLDTEXTSTYLE0
 73
     1
 44
1.0
  0
MTEXT
  5
2E5
330
2D3
100
AcDbEntity
  8
SLD-0
100
AcDbMText
 10
393.3495981127
 20
851.346868968
 30
0.0
 40
9.525
 41
0.0
 71
     1
 72
     1
  1
 
  7
SLDTEXTSTYLE0
 73
     1
 44
1.0
  0
ENDBLK
  5
2D5
330
2D3
100
AcDbEntity
  8
0
100
AcDbBlockEnd
  0
BLOCK
  5
2E8
330
2E7
100
AcDbEntity
  8
0
100
AcDbBlockBegin
  2
_D_8
 70
     0
 10
0.0
 20
0.0
 30
0.0
  3
_D_8
  1

  0
SOLID
  5
2EA
330
2E7
100
AcDbEntity
  8
SLD-0
100
AcDbTrace
 10
447.2432791024
 20
751.224710572
 30
0.0
 11
448.2432791024
 21
759.224710572
 31
0.0
 12
446.2432791024
 22
759.224710572
 32
0.0
 13
446.2432791024
 23
759.224710572
 33
0.0
  0
SOLID
  5
2EB
330
2E7
100
AcDbEntity
  8
SLD-0
100
AcDbTrace
 10
447.2432791024
 20
901.224710572
 30
0.0
 11
446.2432791024
 21
893.224710572
 31
0.0
 12
448.2432791024
 22
893.224710572
 32
0.0
 13
448.2432791024
 23
893.224710572
 33
0.0
  0
LINE
  5
2EC
330
2E7
100
AcDbEntity
  8
SLD-0
100
AcDbLine
 10
434.9313343644
 20
826.2247124346
 30
0.0
 11
432.0341467626
 21
826.2247124346
 31
0.0
  0
LINE
  5
2ED
330
2E7
100
AcDbEntity
  8
SLD-0
100
AcDbLine
 10
432.0341467626
 20
826.2247124346
 30
0.0
 11
432.0341467626
 21
811.0905455085
 31
0.0
  0
LINE
  5
2EE
330
2E7
100
AcDbEntity
  8
SLD-0
100
AcDbLine
 10
432.0341467626
 20
811.0905455085
 30
0.0
 11
434.9313343644
 21
811.0905455085
 31
0.0
  0
LINE
  5
2EF
330
2E7
100
AcDbEntity
  8
SLD-0
100
AcDbLine
 10
459.5552238404
 20
826.2247124346
 30
0.0
 11
462.4524114422
 21
826.2247124346
 31
0.0
  0
LINE
  5
2F0
330
2E7
100
AcDbEntity
  8
SLD-0
100
AcDbLine
 10
462.4524114422
 20
826.2247124346
 30
0.0
 11
462.4524114422
 21
811.0905455085
 31
0.0
  0
LINE
  5
2F1
330
2E7
100
AcDbEntity
  8
SLD-0
100
AcDbLine
 10
462.4524114422
 20
811.0905455085
 30
0.0
 11
459.5552238404
 21
811.0905455085
 31
0.0
  0
LINE
  5
2F2
330
2E7
100
AcDbEntity
  8
SLD-0
100
AcDbLine
 10
532.0442091492
 20
751.224710572
 30
0.0
 11
444.1952791024
 21
751.224710572
 31
0.0
  0
LINE
  5
2F3
330
2E7
100
AcDbEntity
  8
SLD-0
100
AcDbLine
 10
526.6613388974
 20
901.224710572
 30
0.0
 11
444.1952791024
 21
901.224710572
 31
0.0
  0
LINE
  5
2F4
330
2E7
100
AcDbEntity
  8
SLD-0
100
AcDbLine
 10
447.2432791024
 20
751.224710572
 30
0.0
 11
447.2432791024
 21
809.1590849342
 31
0.0
  0
LINE
  5
2F5
330
2E7
100
AcDbEntity
  8
SLD-0
100
AcDbLine
 10
447.2432791024
 20
901.224710572
 30
0.0
 11
447.2432791024
 21
843.2903362098
 31
0.0
  0
MTEXT
  5
2F6
330
2E7
100
AcDbEntity
  8
SLD-0
100
AcDbMText
 10
425.6268202096
 20
840.322868968
 30
0.0
 40
9.525
 41
0.0
 71
     1
 72
     1
  1
 
  7
SLDTEXTSTYLE0
 73
     1
 44
1.0
  0
MTEXT
  5
2F7
330
2E7
100
AcDbEntity
  8
SLD-0
100
AcDbMText
 10
431.4123757884
 20
840.3228698994
 30
0.0
 40
9.525
 41
0.0
 71
     1
 72
     1
  1
150.0
  7
SLDTEXTSTYLE0
 73
     1
 44
1.0
  0
MTEXT
  5
2F8
330
2E7
100
AcDbEntity
  8
SLD-0
100
AcDbMText
 10
434.9313343644
 20
823.2572451929
 30
0.0
 40
9.525
 41
0.0
 71
     1
 72
     1
  1
5.91
  7
SLDTEXTSTYLE0
 73
     1
 44
1.0
  0
MTEXT
  5
2F9
330
2E7
100
AcDbEntity
  8
SLD-0
100
AcDbMText
 10
465.3495981127
 20
840.322868968
 30
0.0
 40
9.525
 41
0.0
 71
     1
 72
     1
  1
 
  7
SLDTEXTSTYLE0
 73
     1
 44
1.0
  0
ENDBLK
  5
2E9
330
2E7
100
AcDbEntity
  8
0
100
AcDbBlockEnd
  0
BLOCK
  5
2FC
330
2FB
100
AcDbEntity
  8
0
100
AcDbBlockBegin
  2
_D_9
 70
     0
 10
0.0
 20
0.0
 30
0.0
  3
_D_9
  1

  0
SOLID
  5
2FE
330
2FB
100
AcDbEntity
  8
SLD-0
100
AcDbTrace
 10
687.5112631062
 20
923.272710572
 30
0.0
 11
686.5112631062
 21
915.272710572
 31
0.0
 12
688.5112631062
 22
915.272710572
 32
0.0
 13
688.5112631062
 23
915.272710572
 33
0.0
  0
SOLID
  5
2FF
330
2FB
100
AcDbEntity
  8
SLD-0
100
AcDbTrace
 10
687.5112631062
 20
839.224710572
 30
0.0
 11
688.5112631062
 21
847.224710572
 31
0.0
 12
686.5112631062
 22
847.224710572
 32
0.0
 13
686.5112631062
 23
847.224710572
 33
0.0
  0
LINE
  5
300
330
2FB
100
AcDbEntity
  8
SLD-0
100
AcDbLine
 10
675.1993183682
 20
881.2487124346
 30
0.0
 11
672.3021307664
 21
881.2487124346
 31
0.0
  0
LINE
  5
301
330
2FB
100
AcDbEntity
  8
SLD-0
100
AcDbLine
 10
672.3021307664
 20
881.2487124346
 30
0.0
 11
672.3021307664
 21
866.1145455085
 31
0.0
  0
LINE
  5
302
330
2FB
100
AcDbEntity
  8
SLD-0
100
AcDbLine
 10
672.3021307664
 20
866.1145455085
 30
0.0
 11
675.1993183682
 21
866.1145455085
 31
0.0
  0
LINE
  5
303
330
2FB
100
AcDbEntity
  8
SLD-0
100
AcDbLine
 10
699.8232078443
 20
881.2487124346
 30
0.0
 11
702.720395446
 21
881.2487124346
 31
0.0
  0
LINE
  5
304
330
2FB
100
AcDbEntity
  8
SLD-0
100
AcDbLine
 10
702.720395446
 20
881.2487124346
 30
0.0
 11
702.720395446
 21
866.1145455085
 31
0.0
  0
LINE
  5
305
330
2FB
100
AcDbEntity
  8
SLD-0
100
AcDbLine
 10
702.720395446
 20
866.1145455085
 30
0.0
 11
699.8232078443
 21
866.1145455085
 31
0.0
  0
LINE
  5
306
330
2FB
100
AcDbEntity
  8
SLD-0
100
AcDbLine
 10
594.6900715949
 20
923.272710572
 30
0.0
 11
690.5592631062
 21
923.272710572
 31
0.0
  0
LINE
  5
307
330
2FB
100
AcDbEntity
  8
SLD-0
100
AcDbLine
 10
574.9252711043
 20
839.224710572
 30
0.0
 11
690.5592631062
 21
839.224710572
 31
0.0
  0
LINE
  5
308
330
2FB
100
AcDbEntity
  8
SLD-0
100
AcDbLine
 10
687.5112631062
 20
923.272710572
 30
0.0
 11
687.5112631062
 21
898.3143362098
 31
0.0
  0
LINE
  5
309
330
2FB
100
AcDbEntity
  8
SLD-0
100
AcDbLine
 10
687.5112631062
 20
839.224710572
 30
0.0
 11
687.5112631062
 21
864.1830849342
 31
0.0
  0
MTEXT
  5
30A
330
2FB
100
AcDbEntity
  8
SLD-0
100
AcDbMText
 10
665.8948042134
 20
895.346868968
 30
0.0
 40
9.525
 41
0.0
 71
     1
 72
     1
  1
 
  7
SLDTEXTSTYLE0
 73
     1
 44
1.0
  0
MTEXT
  5
30B
330
2FB
100
AcDbEntity
  8
SLD-0
100
AcDbMText
 10
675.1993174369
 20
895.3468698994
 30
0.0
 40
9.525
 41
0.0
 71
     1
 72
     1
  1
84.0
  7
SLDTEXTSTYLE0
 73
     1
 44
1.0
  0
MTEXT
  5
30C
330
2FB
100
AcDbEntity
  8
SLD-0
100
AcDbMText
 10
675.1993183682
 20
878.2812451929
 30
0.0
 40
9.525
 41
0.0
 71
     1
 72
     1
  1
3.31
  7
SLDTEXTSTYLE0
 73
     1
 44
1.0
  0
MTEXT
  5
30D
330
2FB
100
AcDbEntity
  8
SLD-0
100
AcDbMText
 10
705.6175821165
 20
895.346868968
 30
0.0
 40
9.525
 41
0.0
 71
     1
 72
     1
  1
 
  7
SLDTEXTSTYLE0
 73
     1
 44
1.0
  0
ENDBLK
  5
2FD
330
2FB
100
AcDbEntity
  8
0
100
AcDbBlockEnd
  0
BLOCK
  5
310
330
30F
100
AcDbEntity
  8
0
100
AcDbBlockBegin
  2
_D_10
 70
     0
 10
0.0
 20
0.0
 30
0.0
  3
_D_10
  1

  0
SOLID
  5
312
330
30F
100
AcDbEntity
  8
SLD-0
100
AcDbTrace
 10
588.8772711043
 20
965.9055053054
 30
0.0
 11
580.8772711043
 21
966.9055053054
 31
0.0
 12
580.8772711043
 22
964.9055053054
 32
0.0
 13
580.8772711043
 23
964.9055053054
 33
0.0
  0
SOLID
  5
313
330
30F
100
AcDbEntity
  8
SLD-0
100
AcDbTrace
 10
545.8772711043
 20
965.9055053054
 30
0.0
 11
553.8772711043
 21
964.9055053054
 31
0.0
 12
553.8772711043
 22
966.9055053054
 32
0.0
 13
553.8772711043
 23
966.9055053054
 33
0.0
  0
LINE
  5
314
330
30F
100
AcDbEntity
  8
SLD-0
100
AcDbLine
 10
612.0663715504
 20
965.9055071681
 30
0.0
 11
609.1691839486
 21
965.9055071681
 31
0.0
  0
LINE
  5
315
330
30F
100
AcDbEntity
  8
SLD-0
100
AcDbLine
 10
609.1691839486
 20
965.9055071681
 30
0.0
 11
609.1691839486
 21
950.7713402419
 31
0.0
  0
LINE
  5
316
330
30F
100
AcDbEntity
  8
SLD-0
100
AcDbLine
 10
609.1691839486
 20
950.7713402419
 30
0.0
 11
612.0663715504
 21
950.7713402419
 31
0.0
  0
LINE
  5
317
330
30F
100
AcDbEntity
  8
SLD-0
100
AcDbLine
 10
636.6902610265
 20
965.9055071681
 30
0.0
 11
639.5874486282
 21
965.9055071681
 31
0.0
  0
LINE
  5
318
330
30F
100
AcDbEntity
  8
SLD-0
100
AcDbLine
 10
639.5874486282
 20
965.9055071681
 30
0.0
 11
639.5874486282
 21
950.7713402419
 31
0.0
  0
LINE
  5
319
330
30F
100
AcDbEntity
  8
SLD-0
100
AcDbLine
 10
639.5874486282
 20
950.7713402419
 30
0.0
 11
636.6902610265
 21
950.7713402419
 31
0.0
  0
LINE
  5
31A
330
30F
100
AcDbEntity
  8
SLD-0
100
AcDbLine
 10
588.8772711043
 20
929.1940252531
 30
0.0
 11
588.8772711043
 21
968.9535053054
 31
0.0
  0
LINE
  5
31B
330
30F
100
AcDbEntity
  8
SLD-0
100
AcDbLine
 10
545.8772711043
 20
928.7129853578
 30
0.0
 11
545.8772711043
 21
968.9535053054
 31
0.0
  0
LINE
  5
31C
330
30F
100
AcDbEntity
  8
SLD-0
100
AcDbLine
 10
588.8772711043
 20
965.9055053054
 30
0.0
 11
600.830620033
 21
965.9055053054
 31
0.0
  0
LINE
  5
31D
330
30F
100
AcDbEntity
  8
SLD-0
100
AcDbLine
 10
545.8772711043
 20
965.9055053054
 30
0.0
 11
588.8772711043
 21
965.9055053054
 31
0.0
  0
MTEXT
  5
31E
330
30F
100
AcDbEntity
  8
SLD-0
100
AcDbMText
 10
602.7618573956
 20
980.0036637015
 30
0.0
 40
9.525
 41
0.0
 71
     1
 72
     1
  1
 
  7
SLDTEXTSTYLE0
 73
     1
 44
1.0
  0
MTEXT
  5
31F
330
30F
100
AcDbEntity
  8
SLD-0
100
AcDbMText
 10
612.0663706191
 20
980.0036646328
 30
0.0
 40
9.525
 41
0.0
 71
     1
 72
     1
  1
43.0
  7
SLDTEXTSTYLE0
 73
     1
 44
1.0
  0
MTEXT
  5
320
330
30F
100
AcDbEntity
  8
SLD-0
100
AcDbMText
 10
612.0663715504
 20
962.9380399264
 30
0.0
 40
9.525
 41
0.0
 71
     1
 72
     1
  1
1.69
  7
SLDTEXTSTYLE0
 73
     1
 44
1.0
  0
MTEXT
  5
321
330
30F
100
AcDbEntity
  8
SLD-0
100
AcDbMText
 10
642.4846352987
 20
980.0036637015
 30
0.0
 40
9.525
 41
0.0
 71
     1
 72
     1
  1
 
  7
SLDTEXTSTYLE0
 73
     1
 44
1.0
  0
ENDBLK
  5
311
330
30F
100
AcDbEntity
  8
0
100
AcDbBlockEnd
  0
BLOCK
  5
324
330
323
100
AcDbEntity
  8
0
100
AcDbBlockBegin
  2
SW_CENTERMARKSYMBOL_0
 70
     0
 10
0.0
 20
0.0
 30
0.0
  3
SW_CENTERMARKSYMBOL_0
  1

  0
LINE
  5
326
330
323
100
AcDbEntity
  8
SLD-0
 62
     0
100
AcDbLine
 10
0.0
 20
0.0
 30
0.0
 11
0.0
 21
2.0
 31
0.0
  0
LINE
  5
327
330
323
100
AcDbEntity
  8
SLD-0
 62
     0
100
AcDbLine
 10
0.0
 20
0.0
 30
0.0
 11
-2.0
 21
0.0
 31
0.0
  0
LINE
  5
328
330
323
100
AcDbEntity
  8
SLD-0
 62
     0
100
AcDbLine
 10
0.0
 20
0.0
 30
0.0
 11
0.0
 21
-2.0
 31
0.0
  0
LINE
  5
329
330
323
100
AcDbEntity
  8
SLD-0
 62
     0
100
AcDbLine
 10
0.0
 20
0.0
 30
0.0
 11
2.0
 21
0.0
 31
0.0
  0
LINE
  5
32A
330
323
100
AcDbEntity
  8
SLD-0
 62
     0
100
AcDbLine
 10
0.0
 20
4.0
 30
0.0
 11
0.0
 21
4.5
 31
0.0
  0
LINE
  5
32B
330
323
100
AcDbEntity
  8
SLD-0
 62
     0
100
AcDbLine
 10
-4.0
 20
0.0
 30
0.0
 11
-4.5
 21
0.0
 31
0.0
  0
LINE
  5
32C
330
323
100
AcDbEntity
  8
SLD-0
 62
     0
100
AcDbLine
 10
0.0
 20
-4.0
 30
0.0
 11
0.0
 21
-4.5
 31
0.0
  0
LINE
  5
32D
330
323
100
AcDbEntity
  8
SLD-0
 62
     0
100
AcDbLine
 10
4.0
 20
0.0
 30
0.0
 11
4.5
 21
0.0
 31
0.0
  0
ENDBLK
  5
325
330
323
100
AcDbEntity
  8
0
100
AcDbBlockEnd
  0
BLOCK
  5
388
330
387
100
AcDbEntity
  8
0
100
AcDbBlockBegin
  2
_D_11
 70
     0
 10
0.0
 20
0.0
 30
0.0
  3
_D_11
  1

  0
SOLID
  5
38A
330
387
100
AcDbEntity
  8
SLD-0
100
AcDbTrace
 10
1049.97464721
 20
576.9378781254
 30
0.0
 11
1048.97464721
 21
568.9378781254
 31
0.0
 12
1050.97464721
 22
568.9378781254
 32
0.0
 13
1050.97464721
 23
568.9378781254
 33
0.0
  0
SOLID
  5
38B
330
387
100
AcDbEntity
  8
SLD-0
100
AcDbTrace
 10
1049.97464721
 20
478.1178781254
 30
0.0
 11
1050.97464721
 21
486.1178781254
 31
0.0
 12
1048.97464721
 22
486.1178781254
 32
0.0
 13
1048.97464721
 23
486.1178781254
 33
0.0
  0
LINE
  5
38C
330
387
100
AcDbEntity
  8
SLD-0
100
AcDbLine
 10
1037.662702472
 20
527.5278799881
 30
0.0
 11
1034.7655148702
 21
527.5278799881
 31
0.0
  0
LINE
  5
38D
330
387
100
AcDbEntity
  8
SLD-0
100
AcDbLine
 10
1034.7655148702
 20
527.5278799881
 30
0.0
 11
1034.7655148702
 21
512.3937130619
 31
0.0
  0
LINE
  5
38E
330
387
100
AcDbEntity
  8
SLD-0
100
AcDbLine
 10
1034.7655148702
 20
512.3937130619
 30
0.0
 11
1037.662702472
 21
512.3937130619
 31
0.0
  0
LINE
  5
38F
330
387
100
AcDbEntity
  8
SLD-0
100
AcDbLine
 10
1062.2865919481
 20
527.5278799881
 30
0.0
 11
1065.1837795498
 21
527.5278799881
 31
0.0
  0
LINE
  5
390
330
387
100
AcDbEntity
  8
SLD-0
100
AcDbLine
 10
1065.1837795498
 20
527.5278799881
 30
0.0
 11
1065.1837795498
 21
512.3937130619
 31
0.0
  0
LINE
  5
391
330
387
100
AcDbEntity
  8
SLD-0
100
AcDbLine
 10
1065.1837795498
 20
512.3937130619
 30
0.0
 11
1062.2865919481
 21
512.3937130619
 31
0.0
  0
LINE
  5
392
330
387
100
AcDbEntity
  8
SLD-0
100
AcDbLine
 10
1147.0606392119
 20
576.9378781254
 30
0.0
 11
1046.92664721
 21
576.9378781254
 31
0.0
  0
LINE
  5
393
330
387
100
AcDbEntity
  8
SLD-0
100
AcDbLine
 10
1147.0606392119
 20
478.1178781254
 30
0.0
 11
1046.92664721
 21
478.1178781254
 31
0.0
  0
LINE
  5
394
330
387
100
AcDbEntity
  8
SLD-0
100
AcDbLine
 10
1049.97464721
 20
576.9378781254
 30
0.0
 11
1049.97464721
 21
544.5935037632
 31
0.0
  0
LINE
  5
395
330
387
100
AcDbEntity
  8
SLD-0
100
AcDbLine
 10
1049.97464721
 20
478.1178781254
 30
0.0
 11
1049.97464721
 21
510.4622524876
 31
0.0
  0
MTEXT
  5
396
330
387
100
AcDbEntity
  8
SLD-0
100
AcDbMText
 10
1028.3581883172
 20
541.6260365214
 30
0.0
 40
9.525
 41
0.0
 71
     1
 72
     1
  1
 
  7
SLDTEXTSTYLE0
 73
     1
 44
1.0
  0
MTEXT
  5
397
330
387
100
AcDbEntity
  8
SLD-0
100
AcDbMText
 10
1037.6627015407
 20
541.6260374528
 30
0.0
 40
9.525
 41
0.0
 71
     1
 72
     1
  1
98.8
  7
SLDTEXTSTYLE0
 73
     1
 44
1.0
  0
MTEXT
  5
398
330
387
100
AcDbEntity
  8
SLD-0
100
AcDbMText
 10
1037.662702472
 20
524.5604127463
 30
0.0
 40
9.525
 41
0.0
 71
     1
 72
     1
  1
3.89
  7
SLDTEXTSTYLE0
 73
     1
 44
1.0
  0
MTEXT
  5
399
330
387
100
AcDbEntity
  8
SLD-0
100
AcDbMText
 10
1068.0809662203
 20
541.6260365214
 30
0.0
 40
9.525
 41
0.0
 71
     1
 72
     1
  1
 
  7
SLDTEXTSTYLE0
 73
     1
 44
1.0
  0
ENDBLK
  5
389
330
387
100
AcDbEntity
  8
0
100
AcDbBlockEnd
  0
BLOCK
  5
39C
330
39B
100
AcDbEntity
  8
0
100
AcDbBlockBegin
  2
_D_12
 70
     0
 10
0.0
 20
0.0
 30
0.0
  3
_D_12
  1

  0
SOLID
  5
39E
330
39B
100
AcDbEntity
  8
SLD-0
100
AcDbTrace
 10
1150.1086392119
 20
381.4089759704
 30
0.0
 11
1158.1086392119
 21
380.4089759704
 31
0.0
 12
1158.1086392119
 22
382.4089759704
 32
0.0
 13
1158.1086392119
 23
382.4089759704
 33
0.0
  0
SOLID
  5
39F
330
39B
100
AcDbEntity
  8
SLD-0
100
AcDbTrace
 10
1190.1086392119
 20
381.4089759704
 30
0.0
 11
1182.1086392119
 21
382.4089759704
 31
0.0
 12
1182.1086392119
 22
380.4089759704
 32
0.0
 13
1182.1086392119
 23
380.4089759704
 33
0.0
  0
LINE
  5
3A0
330
39B
100
AcDbEntity
  8
SLD-0
100
AcDbLine
 10
1102.9372758043
 20
381.408977833
 30
0.0
 11
1100.0400882026
 21
381.408977833
 31
0.0
  0
LINE
  5
3A1
330
39B
100
AcDbEntity
  8
SLD-0
100
AcDbLine
 10
1100.0400882026
 20
381.408977833
 30
0.0
 11
1100.0400882026
 21
366.2748109069
 31
0.0
  0
LINE
  5
3A2
330
39B
100
AcDbEntity
  8
SLD-0
100
AcDbLine
 10
1100.0400882026
 20
366.2748109069
 30
0.0
 11
1102.9372758043
 21
366.2748109069
 31
0.0
  0
LINE
  5
3A3
330
39B
100
AcDbEntity
  8
SLD-0
100
AcDbLine
 10
1127.5611652804
 20
381.408977833
 30
0.0
 11
1130.4583528822
 21
381.408977833
 31
0.0
  0
LINE
  5
3A4
330
39B
100
AcDbEntity
  8
SLD-0
100
AcDbLine
 10
1130.4583528822
 20
381.408977833
 30
0.0
 11
1130.4583528822
 21
366.2748109069
 31
0.0
  0
LINE
  5
3A5
330
39B
100
AcDbEntity
  8
SLD-0
100
AcDbLine
 10
1130.4583528822
 20
366.2748109069
 30
0.0
 11
1127.5611652804
 21
366.2748109069
 31
0.0
  0
LINE
  5
3A6
330
39B
100
AcDbEntity
  8
SLD-0
100
AcDbLine
 10
1150.1086392119
 20
472.3906463694
 30
0.0
 11
1150.1086392119
 21
378.3609759704
 31
0.0
  0
LINE
  5
3A7
330
39B
100
AcDbEntity
  8
SLD-0
100
AcDbLine
 10
1190.1086392119
 20
472.2205926499
 30
0.0
 11
1190.1086392119
 21
378.3609759704
 31
0.0
  0
LINE
  5
3A8
330
39B
100
AcDbEntity
  8
SLD-0
100
AcDbLine
 10
1150.1086392119
 20
381.4089759704
 30
0.0
 11
1138.7969167978
 21
381.4089759704
 31
0.0
  0
LINE
  5
3A9
330
39B
100
AcDbEntity
  8
SLD-0
100
AcDbLine
 10
1190.1086392119
 20
381.4089759704
 30
0.0
 11
1150.1086392119
 21
381.4089759704
 31
0.0
  0
MTEXT
  5
3AA
330
39B
100
AcDbEntity
  8
SLD-0
100
AcDbMText
 10
1093.6327616496
 20
395.5071343664
 30
0.0
 40
9.525
 41
0.0
 71
     1
 72
     1
  1
 
  7
SLDTEXTSTYLE0
 73
     1
 44
1.0
  0
MTEXT
  5
3AB
330
39B
100
AcDbEntity
  8
SLD-0
100
AcDbMText
 10
1102.937274873
 20
395.5071352977
 30
0.0
 40
9.525
 41
0.0
 71
     1
 72
     1
  1
40.0
  7
SLDTEXTSTYLE0
 73
     1
 44
1.0
  0
MTEXT
  5
3AC
330
39B
100
AcDbEntity
  8
SLD-0
100
AcDbMText
 10
1102.9372758043
 20
378.4415105913
 30
0.0
 40
9.525
 41
0.0
 71
     1
 72
     1
  1
1.57
  7
SLDTEXTSTYLE0
 73
     1
 44
1.0
  0
MTEXT
  5
3AD
330
39B
100
AcDbEntity
  8
SLD-0
100
AcDbMText
 10
1133.3555395526
 20
395.5071343664
 30
0.0
 40
9.525
 41
0.0
 71
     1
 72
     1
  1
 
  7
SLDTEXTSTYLE0
 73
     1
 44
1.0
  0
ENDBLK
  5
39D
330
39B
100
AcDbEntity
  8
0
100
AcDbBlockEnd
  0
BLOCK
  5
3B1
330
3B0
100
AcDbEntity
  8
0
100
AcDbBlockBegin
  2
_D_13
 70
     0
 10
0.0
 20
0.0
 30
0.0
  3
_D_13
  1

  0
SOLID
  5
3B3
330
3B0
100
AcDbEntity
  8
SLD-0
100
AcDbTrace
 10
1171.8020255181
 20
618.0528616783
 30
0.0
 11
1176.8238921161
 21
624.3600683398
 31
0.0
 12
1175.1168299657
 22
625.4021522205
 32
0.0
 13
1175.1168299657
 23
625.4021522205
 33
0.0
  0
LINE
  5
3B4
330
3B0
100
AcDbEntity
  8
SLD-0
100
AcDbLine
 10
1171.8020255181
 20
618.0528616783
 30
0.0
 11
1228.6567295621
 21
711.1878915424
 31
0.0
  0
LINE
  5
3B5
330
3B0
100
AcDbEntity
  8
SLD-0
100
AcDbLine
 10
1228.6567295621
 20
711.1878915424
 30
0.0
 11
1236.6567295621
 21
711.1878915424
 31
0.0
  0
MTEXT
  5
3B6
330
3B0
100
AcDbEntity
  8
SLD-0
100
AcDbMText
 10
1276.1405040155
 20
730.7364662947
 30
0.0
 40
9.525
 41
0.0
 71
     1
 72
     1
  1
%%c
  7
SLDTEXTSTYLE0
 73
     1
 44
1.0
  0
MTEXT
  5
3B7
330
3B0
100
AcDbEntity
  8
SLD-0
100
AcDbMText
 10
1290.5179620366
 20
730.7364662947
 30
0.0
 40
9.525
 41
0.0
 71
     1
 72
     1
  1
6.50
  7
SLDTEXTSTYLE0
 73
     1
 44
1.0
  0
MTEXT
  5
3B8
330
3B0
100
AcDbEntity
  8
SLD-0
100
AcDbMText
 10
1315.14184965
 20
730.7364662947
 30
0.0
 40
9.525
 41
0.0
 71
     1
 72
     1
  1
 THRU
  7
SLDTEXTSTYLE0
 73
     1
 44
1.0
  0
MTEXT
  5
3B9
330
3B0
100
AcDbEntity
  8
SLD-0
100
AcDbMText
 10
1236.6567295621
 20
715.6022993686
 30
0.0
 40
9.525
 41
0.0
 71
     1
 72
     1
  1
3 PLACE FOR MOUNTING
  7
SLDTEXTSTYLE0
 73
     1
 44
1.0
  0
MTEXT
  5
3BA
330
3B0
100
AcDbEntity
  8
SLD-0
100
AcDbMText
 10
1265.2317327093
 20
700.4681324424
 30
0.0
 40
9.525
 41
0.0
 71
     1
 72
     1
  1
72.7 MM APART
  7
SLDTEXTSTYLE0
 73
     1
 44
1.0
  0
ENDBLK
  5
3B2
330
3B0
100
AcDbEntity
  8
0
100
AcDbBlockEnd
  0
BLOCK
  5
3BD
330
3BC
100
AcDbEntity
  8
0
100
AcDbBlockBegin
  2
_D_14
 70
     0
 10
0.0
 20
0.0
 30
0.0
  3
_D_14
  1

  0
SOLID
  5
3BF
330
3BC
100
AcDbEntity
  8
SLD-0
100
AcDbTrace
 10
1049.97464721
 20
576.9378781254
 30
0.0
 11
1050.97464721
 21
584.9378781254
 31
0.0
 12
1048.97464721
 22
584.9378781254
 32
0.0
 13
1048.97464721
 23
584.9378781254
 33
0.0
  0
SOLID
  5
3C0
330
3BC
100
AcDbEntity
  8
SLD-0
100
AcDbTrace
 10
1049.97464721
 20
658.0678781254
 30
0.0
 11
1048.97464721
 21
650.0678781254
 31
0.0
 12
1050.97464721
 22
650.0678781254
 32
0.0
 13
1050.97464721
 23
650.0678781254
 33
0.0
  0
LINE
  5
3C1
330
3BC
100
AcDbEntity
  8
SLD-0
100
AcDbLine
 10
1037.662702472
 20
617.5028799881
 30
0.0
 11
1034.7655148702
 21
617.5028799881
 31
0.0
  0
LINE
  5
3C2
330
3BC
100
AcDbEntity
  8
SLD-0
100
AcDbLine
 10
1034.7655148702
 20
617.5028799881
 30
0.0
 11
1034.7655148702
 21
602.3687130619
 31
0.0
  0
LINE
  5
3C3
330
3BC
100
AcDbEntity
  8
SLD-0
100
AcDbLine
 10
1034.7655148702
 20
602.3687130619
 30
0.0
 11
1037.662702472
 21
602.3687130619
 31
0.0
  0
LINE
  5
3C4
330
3BC
100
AcDbEntity
  8
SLD-0
100
AcDbLine
 10
1062.2865919481
 20
617.5028799881
 30
0.0
 11
1065.1837795498
 21
617.5028799881
 31
0.0
  0
LINE
  5
3C5
330
3BC
100
AcDbEntity
  8
SLD-0
100
AcDbLine
 10
1065.1837795498
 20
617.5028799881
 30
0.0
 11
1065.1837795498
 21
602.3687130619
 31
0.0
  0
LINE
  5
3C6
330
3BC
100
AcDbEntity
  8
SLD-0
100
AcDbLine
 10
1065.1837795498
 20
602.3687130619
 30
0.0
 11
1062.2865919481
 21
602.3687130619
 31
0.0
  0
LINE
  5
3C7
330
3BC
100
AcDbEntity
  8
SLD-0
100
AcDbLine
 10
1147.0606392119
 20
576.9378781254
 30
0.0
 11
1046.92664721
 21
576.9378781254
 31
0.0
  0
LINE
  5
3C8
330
3BC
100
AcDbEntity
  8
SLD-0
100
AcDbLine
 10
1083.5770031958
 20
658.0678781254
 30
0.0
 11
1046.92664721
 21
658.0678781254
 31
0.0
  0
LINE
  5
3C9
330
3BC
100
AcDbEntity
  8
SLD-0
100
AcDbLine
 10
1049.97464721
 20
576.9378781254
 30
0.0
 11
1049.97464721
 21
600.4372524876
 31
0.0
  0
LINE
  5
3CA
330
3BC
100
AcDbEntity
  8
SLD-0
100
AcDbLine
 10
1049.97464721
 20
658.0678781254
 30
0.0
 11
1049.97464721
 21
634.5685037632
 31
0.0
  0
MTEXT
  5
3CB
330
3BC
100
AcDbEntity
  8
SLD-0
100
AcDbMText
 10
1028.3581883172
 20
631.6010365214
 30
0.0
 40
9.525
 41
0.0
 71
     1
 72
     1
  1
 
  7
SLDTEXTSTYLE0
 73
     1
 44
1.0
  0
MTEXT
  5
3CC
330
3BC
100
AcDbEntity
  8
SLD-0
100
AcDbMText
 10
1037.6627015407
 20
631.6010374528
 30
0.0
 40
9.525
 41
0.0
 71
     1
 72
     1
  1
81.1
  7
SLDTEXTSTYLE0
 73
     1
 44
1.0
  0
MTEXT
  5
3CD
330
3BC
100
AcDbEntity
  8
SLD-0
100
AcDbMText
 10
1037.662702472
 20
614.5354127463
 30
0.0
 40
9.525
 41
0.0
 71
     1
 72
     1
  1
3.19
  7
SLDTEXTSTYLE0
 73
     1
 44
1.0
  0
MTEXT
  5
3CE
330
3BC
100
AcDbEntity
  8
SLD-0
100
AcDbMText
 10
1068.0809662203
 20
631.6010365214
 30
0.0
 40
9.525
 41
0.0
 71
     1
 72
     1
  1
 
  7
SLDTEXTSTYLE0
 73
     1
 44
1.0
  0
ENDBLK
  5
3BE
330
3BC
100
AcDbEntity
  8
0
100
AcDbBlockEnd
  0
BLOCK
  5
3D2
330
3D1
100
AcDbEntity
  8
0
100
AcDbBlockBegin
  2
_D_15
 70
     0
 10
0.0
 20
0.0
 30
0.0
  3
_D_15
  1

  0
SOLID
  5
3D4
330
3D1
100
AcDbEntity
  8
SLD-0
100
AcDbTrace
 10
1276.3024802149
 20
658.2741469417
 30
0.0
 11
1275.3024802149
 21
650.2741469417
 31
0.0
 12
1277.3024802149
 22
650.2741469417
 32
0.0
 13
1277.3024802149
 23
650.2741469417
 33
0.0
  0
SOLID
  5
3D5
330
3D1
100
AcDbEntity
  8
SLD-0
100
AcDbTrace
 10
1276.3024802149
 20
615.2788856837
 30
0.0
 11
1277.3024802149
 21
623.2788856837
 31
0.0
 12
1275.3024802149
 22
623.2788856837
 32
0.0
 13
1275.3024802149
 23
623.2788856837
 33
0.0
  0
LINE
  5
3D6
330
3D1
100
AcDbEntity
  8
SLD-0
100
AcDbLine
 10
1299.4007064576
 20
596.8285399205
 30
0.0
 11
1296.5035188558
 21
596.8285399205
 31
0.0
  0
LINE
  5
3D7
330
3D1
100
AcDbEntity
  8
SLD-0
100
AcDbLine
 10
1296.5035188558
 20
596.8285399205
 30
0.0
 11
1296.5035188558
 21
581.6943729943
 31
0.0
  0
LINE
  5
3D8
330
3D1
100
AcDbEntity
  8
SLD-0
100
AcDbLine
 10
1296.5035188558
 20
581.6943729943
 30
0.0
 11
1299.4007064576
 21
581.6943729943
 31
0.0
  0
LINE
  5
3D9
330
3D1
100
AcDbEntity
  8
SLD-0
100
AcDbLine
 10
1324.0245959337
 20
596.8285399205
 30
0.0
 11
1326.9217835355
 21
596.8285399205
 31
0.0
  0
LINE
  5
3DA
330
3D1
100
AcDbEntity
  8
SLD-0
100
AcDbLine
 10
1326.9217835355
 20
596.8285399205
 30
0.0
 11
1326.9217835355
 21
581.6943729943
 31
0.0
  0
LINE
  5
3DB
330
3D1
100
AcDbEntity
  8
SLD-0
100
AcDbLine
 10
1326.9217835355
 20
581.6943729943
 30
0.0
 11
1324.0245959337
 21
581.6943729943
 31
0.0
  0
LINE
  5
3DC
330
3D1
100
AcDbEntity
  8
SLD-0
100
AcDbLine
 10
1254.3232489663
 20
658.2741469417
 30
0.0
 11
1279.3504802149
 21
658.2741469417
 31
0.0
  0
LINE
  5
3DD
330
3D1
100
AcDbEntity
  8
SLD-0
100
AcDbLine
 10
1178.4066392119
 20
615.2788856837
 30
0.0
 11
1279.3504802149
 21
615.2788856837
 31
0.0
  0
LINE
  5
3DE
330
3D1
100
AcDbEntity
  8
SLD-0
100
AcDbLine
 10
1284.3024802149
 20
596.8285380578
 30
0.0
 11
1276.3024802149
 21
596.8285380578
 31
0.0
  0
LINE
  5
3DF
330
3D1
100
AcDbEntity
  8
SLD-0
100
AcDbLine
 10
1276.3024802149
 20
596.8285380578
 30
0.0
 11
1276.3024802149
 21
615.2788856837
 31
0.0
  0
LINE
  5
3E0
330
3D1
100
AcDbEntity
  8
SLD-0
100
AcDbLine
 10
1276.3024802149
 20
658.2741469417
 30
0.0
 11
1276.3024802149
 21
615.2788856837
 31
0.0
  0
MTEXT
  5
3E1
330
3D1
100
AcDbEntity
  8
SLD-0
100
AcDbMText
 10
1290.0961923028
 20
610.9266964538
 30
0.0
 40
9.525
 41
0.0
 71
     1
 72
     1
  1
 
  7
SLDTEXTSTYLE0
 73
     1
 44
1.0
  0
MTEXT
  5
3E2
330
3D1
100
AcDbEntity
  8
SLD-0
100
AcDbMText
 10
1295.8817478816
 20
610.9266973852
 30
0.0
 40
9.525
 41
0.0
 71
     1
 72
     1
  1
43.00
  7
SLDTEXTSTYLE0
 73
     1
 44
1.0
  0
MTEXT
  5
3E3
330
3D1
100
AcDbEntity
  8
SLD-0
100
AcDbMText
 10
1299.4007064576
 20
593.8610726787
 30
0.0
 40
9.525
 41
0.0
 71
     1
 72
     1
  1
1.69
  7
SLDTEXTSTYLE0
 73
     1
 44
1.0
  0
MTEXT
  5
3E4
330
3D1
100
AcDbEntity
  8
SLD-0
100
AcDbMText
 10
1329.8189702059
 20
610.9266964538
 30
0.0
 40
9.525
 41
0.0
 71
     1
 72
     1
  1
 
  7
SLDTEXTSTYLE0
 73
     1
 44
1.0
  0
ENDBLK
  5
3D3
330
3D1
100
AcDbEntity
  8
0
100
AcDbBlockEnd
  0
BLOCK
  5
3E7
330
3E6
100
AcDbEntity
  8
0
100
AcDbBlockBegin
  2
SW_CENTERMARKSYMBOL_1
 70
     0
 10
0.0
 20
0.0
 30
0.0
  3
SW_CENTERMARKSYMBOL_1
  1

  0
LINE
  5
3E9
330
3E6
100
AcDbEntity
  8
SLD-0
 62
     0
100
AcDbLine
 10
0.0
 20
0.0
 30
0.0
 11
0.0
 21
2.0
 31
0.0
  0
LINE
  5
3EA
330
3E6
100
AcDbEntity
  8
SLD-0
 62
     0
100
AcDbLine
 10
0.0
 20
0.0
 30
0.0
 11
-2.0
 21
0.0
 31
0.0
  0
LINE
  5
3EB
330
3E6
100
AcDbEntity
  8
SLD-0
 62
     0
100
AcDbLine
 10
0.0
 20
0.0
 30
0.0
 11
0.0
 21
-2.0
 31
0.0
  0
LINE
  5
3EC
330
3E6
100
AcDbEntity
  8
SLD-0
 62
     0
100
AcDbLine
 10
0.0
 20
0.0
 30
0.0
 11
2.0
 21
0.0
 31
0.0
  0
LINE
  5
3ED
330
3E6
100
AcDbEntity
  8
SLD-0
 62
     0
100
AcDbLine
 10
0.0
 20
4.0
 30
0.0
 11
0.0
 21
5.25
 31
0.0
  0
LINE
  5
3EE
330
3E6
100
AcDbEntity
  8
SLD-0
 62
     0
100
AcDbLine
 10
-4.0
 20
0.0
 30
0.0
 11
-5.25
 21
0.0
 31
0.0
  0
LINE
  5
3EF
330
3E6
100
AcDbEntity
  8
SLD-0
 62
     0
100
AcDbLine
 10
0.0
 20
-4.0
 30
0.0
 11
0.0
 21
-5.25
 31
0.0
  0
LINE
  5
3F0
330
3E6
100
AcDbEntity
  8
SLD-0
 62
     0
100
AcDbLine
 10
4.0
 20
0.0
 30
0.0
 11
5.25
 21
0.0
 31
0.0
  0
ENDBLK
  5
3E8
330
3E6
100
AcDbEntity
  8
0
100
AcDbBlockEnd
  0
ENDSEC
  0
SECTION
  2
ENTITIES
  0
LINE
  5
68
330
1F
100
AcDbEntity
  8
SLD-0
 62
     7
100
AcDbLine
 10
26.0
 20
1091.6
 30
0.0
 11
1701.2
 21
1091.6
 31
0.0
  0
LINE
  5
69
330
1F
100
AcDbEntity
  8
0
  6
Continuous
 62
     7
370
    18
100
AcDbLine
 10
26.0
 20
72.0
 30
0.0
 11
1701.2
 21
72.0
 31
0.0
  0
LINE
  5
6A
330
1F
100
AcDbEntity
  8
0
  6
CENTER
 62
     7
370
    18
100
AcDbLine
 10
733.8205032522
 20
35.7070787117
 30
0.0
 11
752.5065632498
 21
35.7070787117
 31
0.0
  0
LINE
  5
6B
330
1F
100
AcDbEntity
  8
0
  6
Continuous
 62
     7
370
    18
100
AcDbLine
 10
735.7120492196
 20
33.1670787117
 30
0.0
 11
750.9520492196
 21
30.6270787117
 31
0.0
  0
LINE
  5
6C
330
1F
100
AcDbEntity
  8
0
  6
Continuous
 62
     7
370
    18
100
AcDbLine
 10
735.7120492196
 20
38.2470787117
 30
0.0
 11
750.9520492196
 21
40.7870787117
 31
0.0
  0
LINE
  5
6D
330
1F
100
AcDbEntity
  8
0
  6
CENTER
 62
     7
370
    18
100
AcDbLine
 10
718.9683692196
 20
35.7070787117
 30
0.0
 11
732.0177580758
 21
35.7070787117
 31
0.0
  0
LINE
  5
6E
330
1F
100
AcDbEntity
  8
0
  6
CENTER
 62
     7
370
    18
100
AcDbLine
 10
725.4930636477
 20
29.1155908804
 30
0.0
 11
725.4930636477
 21
42.2985665429
 31
0.0
  0
LINE
  5
6F
330
1F
100
AcDbEntity
  8
0
  6
Continuous
 62
     7
370
    18
100
AcDbLine
 10
735.7120492196
 20
38.2470787117
 30
0.0
 11
735.7120492196
 21
33.1670787117
 31
0.0
  0
LINE
  5
70
330
1F
100
AcDbEntity
  8
0
  6
Continuous
 62
     7
370
    18
100
AcDbLine
 10
750.9520492196
 20
40.7870787117
 30
0.0
 11
750.9520492196
 21
30.6270787117
 31
0.0
  0
CIRCLE
  5
71
330
1F
100
AcDbEntity
  8
0
  6
Continuous
 62
     7
370
    18
100
AcDbCircle
 10
725.4930636477
 20
35.7070787117
 30
0.0
 40
5.079999999999602
  0
CIRCLE
  5
72
330
1F
100
AcDbEntity
  8
0
  6
Continuous
 62
     7
370
    18
100
AcDbCircle
 10
725.4930636477
 20
35.7070787117
 30
0.0
 40
2.539999999999753
  0
MTEXT
  5
74
330
1F
100
AcDbEntity
  8
0
  6
Continuous
 62
     7
370
     0
100
AcDbMText
 10
34.8928511554
 20
1078.7402602137
 30
0.0
 40
9.525
 41
0.0
 71
     1
 72
     1
  1
NOTES: UNLESS OTHERWISE SPECIFIED
  7
SLDTEXTSTYLE0
 73
     1
 44
1.0
  0
MTEXT
  5
75
330
1F
100
AcDbEntity
  8
0
  6
Continuous
 62
     7
370
     0
100
AcDbMText
 10
74.8928502613
 20
1062.0402606429
 30
0.0
 40
9.525
 41
0.0
 71
     1
 72
     1
  1
NET WEIGHT APPROX. 2.13 KG [4.70 LBS] (SPEAKER),
  7
SLDTEXTSTYLE0
 73
     1
 44
1.0
  0
MTEXT
  5
76
330
1F
100
AcDbEntity
  8
0
  6
Continuous
 62
     7
370
     0
100
AcDbMText
 10
34.8928511554
 20
1062.0402606429
 30
0.0
 40
9.525
 41
0.0
 71
     1
 72
     1
  1
1.
  7
SLDTEXTSTYLE0
 73
     1
 44
1.0
  0
MTEXT
  5
77
330
1F
100
AcDbEntity
  8
0
  6
Continuous
 62
     7
370
     0
100
AcDbMText
 10
74.8928511554
 20
1045.340261072
 30
0.0
 40
9.525
 41
0.0
 71
     1
 72
     1
  1
2.31 KG [5.09 LBS] (SPEAKER, YOKE AND & KNOBS).
  7
SLDTEXTSTYLE0
 73
     1
 44
1.0
  0
MTEXT
  5
78
330
1F
100
AcDbEntity
  8
0
  6
Continuous
 62
     7
370
     0
100
AcDbMText
 10
74.8928502613
 20
1028.6402615012
 30
0.0
 40
9.525
 41
0.0
 71
     1
 72
     1
  1
PARTS ARE SYMMETRICAL ABOUT CENTER LINES UNLESS OTHERWISE NOTED.
  7
SLDTEXTSTYLE0
 73
     1
 44
1.0
  0
MTEXT
  5
79
330
1F
100
AcDbEntity
  8
0
  6
Continuous
 62
     7
370
     0
100
AcDbMText
 10
34.8928511554
 20
1028.6402615012
 30
0.0
 40
9.525
 41
0.0
 71
     1
 72
     1
  1
2.
  7
SLDTEXTSTYLE0
 73
     1
 44
1.0
  0
MTEXT
  5
7A
330
1F
100
AcDbEntity
  8
0
  6
Continuous
 62
     7
370
     0
100
AcDbMText
 10
74.8928502613
 20
1011.9402619303
 30
0.0
 40
9.525
 41
0.0
 71
     1
 72
     1
  1
SYMBOL   
  7
SLDTEXTSTYLE0
 73
     1
 44
1.0
  0
INSERT
  5
87
330
1F
100
AcDbEntity
  8
0
  6
Continuous
 62
     7
370
     0
100
AcDbBlockReference
  2
SW_SYMBOL_MOD_COM
 10
135.1472974235
 20
1001.0944123209
 30
0.0
 41
0.0030416748
 42
0.0030416748
 43
0.0030416748
  0
MTEXT
  5
88
330
1F
100
AcDbEntity
  8
0
  6
Continuous
 62
     7
370
     0
100
AcDbMText
 10
159.3619600349
 20
1011.9402619303
 30
0.0
 40
9.525
 41
0.0
 71
     1
 72
     1
  1
INDICATES CENTER OF GRAVITY.
  7
SLDTEXTSTYLE0
 73
     1
 44
1.0
  0
MTEXT
  5
89
330
1F
100
AcDbEntity
  8
0
  6
Continuous
 62
     7
370
     0
100
AcDbMText
 10
34.8928511554
 20
1011.9402619303
 30
0.0
 40
9.525
 41
0.0
 71
     1
 72
     1
  1
3.
  7
SLDTEXTSTYLE0
 73
     1
 44
1.0
  0
MTEXT
  5
8A
330
1F
100
AcDbEntity
  8
0
  6
Continuous
 62
     7
370
     0
100
AcDbMText
 10
74.8928502613
 20
995.2402623595
 30
0.0
 40
9.525
 41
0.0
 71
     1
 72
     1
  1
GRILLE NOT SHOWN FOR CLARITY.
  7
SLDTEXTSTYLE0
 73
     1
 44
1.0
  0
MTEXT
  5
8B
330
1F
100
AcDbEntity
  8
0
  6
Continuous
 62
     7
370
     0
100
AcDbMText
 10
34.8928511554
 20
995.2402623595
 30
0.0
 40
9.525
 41
0.0
 71
     1
 72
     1
  1
4.
  7
SLDTEXTSTYLE0
 73
     1
 44
1.0
  0
MTEXT
  5
8C
330
1F
100
AcDbEntity
  8
0
  6
Continuous
 62
     7
370
     0
100
AcDbMText
 10
591.0086038027
 20
57.9639135513
 30
0.0
 40
7.4083333333
 41
0.0
 71
     2
 72
     1
  1
00PW4
  7
SLDTEXTSTYLE0
 73
     1
 44
1.0
  0
MTEXT
  5
8D
330
1F
100
AcDbEntity
  8
0
  6
Continuous
 62
     7
370
     0
100
AcDbMText
 10
906.8023411753
 20
35.5768525952
 30
0.0
 40
7.4083333333
 41
0.0
 71
     1
 72
     1
  1
B.HAWKINS
  7
SLDTEXTSTYLE0
 73
     1
 44
1.0
  0
MTEXT
  5
8E
330
1F
100
AcDbEntity
  8
0
  6
Continuous
 62
     7
370
     0
100
AcDbMText
 10
646.2577067225
 20
66.155488831
 30
0.0
 40
6.35
 41
0.0
 71
     1
 72
     1
  1
UNLESS  OTHERWISE  SPECIFIED
  7
SLDTEXTSTYLE0
 73
     1
 44
1.0
  0
MTEXT
  5
8F
330
1F
100
AcDbEntity
  8
0
  6
Continuous
 62
     7
370
     0
100
AcDbMText
 10
646.2577067225
 20
57.6888222666
 30
0.0
 40
6.35
 41
0.0
 71
     1
 72
     1
  1
DIMENSIONS  ARE  IN  MM [IN]
  7
SLDTEXTSTYLE0
 73
     1
 44
1.0
  0
MTEXT
  5
90
330
1F
100
AcDbEntity
  8
0
  6
Continuous
 62
     7
370
     0
100
AcDbMText
 10
1571.7590578966
 20
35.9698490708
 30
0.0
 40
7.4083333333
 41
0.0
 71
     2
 72
     1
  1
1:4
  7
SLDTEXTSTYLE0
 73
     1
 44
1.0
  0
MTEXT
  5
91
330
1F
100
AcDbEntity
  8
0
  6
Continuous
 62
     7
370
     0
100
AcDbMText
 10
655.9210571763
 20
39.3837438726
 30
0.0
 40
6.35
 41
0.0
 71
     1
 72
     1
  1
PROJECTION
  7
SLDTEXTSTYLE0
 73
     1
 44
1.0
  0
MTEXT
  5
92
330
1F
100
AcDbEntity
  8
0
  6
Continuous
 62
     7
370
     0
100
AcDbMText
 10
851.0303532275
 20
43.6175455912
 30
0.0
 40
6.35
 41
0.0
 71
     1
 72
     1
  1
%%p
  7
SLDTEXTSTYLE0
 73
     1
 44
1.0
  0
MTEXT
  5
93
330
1F
100
AcDbEntity
  8
0
  6
Continuous
 62
     7
370
     0
100
AcDbMText
 10
857.0840198117
 20
43.6175455912
 30
0.0
 40
6.35
 41
0.0
 71
     1
 72
     1
  1
1
  7
SLDTEXTSTYLE0
 73
     1
 44
1.0
  0
MTEXT
  5
94
330
1F
100
AcDbEntity
  8
0
  6
Continuous
 62
     7
370
     0
100
AcDbMText
 10
861.7759642692
 20
43.6175455912
 30
0.0
 40
6.35
 41
0.0
 71
     1
 72
     1
  1
%%d
  7
SLDTEXTSTYLE0
 73
     1
 44
1.0
  0
MTEXT
  5
95
330
1F
100
AcDbEntity
  8
0
  6
Continuous
 62
     7
370
     0
100
AcDbMText
 10
788.1475100943
 20
43.6175455912
 30
0.0
 40
6.35
 41
0.0
 71
     1
 72
     1
  1
.X 
  7
SLDTEXTSTYLE0
 73
     1
 44
1.0
  0
MTEXT
  5
96
330
1F
100
AcDbEntity
  8
0
  6
Continuous
 62
     7
370
     0
100
AcDbMText
 10
797.9782513061
 20
43.6175455912
 30
0.0
 40
6.35
 41
0.0
 71
     1
 72
     1
  1
%%p
  7
SLDTEXTSTYLE0
 73
     1
 44
1.0
  0
MTEXT
  5
97
330
1F
100
AcDbEntity
  8
0
  6
Continuous
 62
     7
370
     0
100
AcDbMText
 10
788.1475100943
 20
35.1508790268
 30
0.0
 40
6.35
 41
0.0
 71
     1
 72
     1
  1
.XX 
  7
SLDTEXTSTYLE0
 73
     1
 44
1.0
  0
MTEXT
  5
98
330
1F
100
AcDbEntity
  8
0
  6
Continuous
 62
     7
370
     0
100
AcDbMText
 10
803.1288060078
 20
35.1508790268
 30
0.0
 40
6.35
 41
0.0
 71
     1
 72
     1
  1
%%p
  7
SLDTEXTSTYLE0
 73
     1
 44
1.0
  0
MTEXT
  5
99
330
1F
100
AcDbEntity
  8
0
  6
Continuous
 62
     7
370
     0
100
AcDbMText
 10
809.1824735233
 20
35.1508790268
 30
0.0
 40
6.35
 41
0.0
 71
     1
 72
     1
  1
 3
  7
SLDTEXTSTYLE0
 73
     1
 44
1.0
  0
MTEXT
  5
9A
330
1F
100
AcDbEntity
  8
0
  6
Continuous
 62
     7
370
     0
100
AcDbMText
 10
1330.1178926323
 20
62.6603393873
 30
0.0
 40
12.7
 41
0.0
 71
     2
 72
     1
  1
LOUDSPEAKER, AC-S4T, W/YOKE
  7
SLDTEXTSTYLE0
 73
     1
 44
1.0
  0
MTEXT
  5
9B
330
1F
100
AcDbEntity
  8
0
  6
Continuous
 62
     7
370
     0
100
AcDbMText
 10
788.2583723686
 20
66.155488831
 30
0.0
 40
6.35
 41
0.0
 71
     1
 72
     1
  1
TOLERANCES  ARE:
  7
SLDTEXTSTYLE0
 73
     1
 44
1.0
  0
MTEXT
  5
9C
330
1F
100
AcDbEntity
  8
0
  6
Continuous
 62
     7
370
     0
100
AcDbMText
 10
788.2583723686
 20
57.6888222666
 30
0.0
 40
6.35
 41
0.0
 71
     1
 72
     1
  1
DECIMALS          ANGLES
  7
SLDTEXTSTYLE0
 73
     1
 44
1.0
  0
MTEXT
  5
9D
330
1F
100
AcDbEntity
  8
0
  6
Continuous
 62
     7
370
     0
100
AcDbMText
 10
1014.4737745067
 20
43.612480649
 30
0.0
 40
5.2916666667
 41
0.0
 71
     1
 72
     1
  1
MFG ENGINEER
  7
SLDTEXTSTYLE0
 73
     1
 44
1.0
  0
MTEXT
  5
9E
330
1F
100
AcDbEntity
  8
0
  6
Continuous
 62
     7
370
     0
100
AcDbMText
 10
906.8023411753
 20
43.612480649
 30
0.0
 40
5.2916666667
 41
0.0
 71
     1
 72
     1
  1
MECH ENGINEER
  7
SLDTEXTSTYLE0
 73
     1
 44
1.0
  0
MTEXT
  5
A0
330
1F
100
AcDbEntity
  8
0
  6
Continuous
 62
     7
370
     0
100
AcDbMText
 10
1541.9619898615
 20
35.1195047232
 30
0.0
 40
5.2916666667
 41
0.0
 71
     1
 72
     1
  1
SCALE:  
  7
SLDTEXTSTYLE1
 73
     1
 44
1.0
  0
MTEXT
  5
A1
330
1F
100
AcDbEntity
  8
SLD-0
 62
     7
100
AcDbMText
 10
1541.6540683972
 20
55.5507191535
 30
0.0
 40
12.7
 41
0.0
 71
     1
 72
     1
  1
FG-040044-2D
  7
SLDTEXTSTYLE0
 73
     1
 44
1.0
  0
MTEXT
  5
A2
330
1F
100
AcDbEntity
  8
0
  6
Continuous
 62
     7
370
     0
100
AcDbMText
 10
1687.5384492472
 20
55.7046798857
 30
0.0
 40
12.7
 41
0.0
 71
     2
 72
     1
  1
A
  7
SLDTEXTSTYLE0
 73
     1
 44
1.0
  0
MTEXT
  5
A3
330
1F
100
AcDbEntity
  8
0
  6
Continuous
 62
     7
370
     0
100
AcDbMText
 10
1683.1941573371
 20
35.9698490708
 30
0.0
 40
7.4083333333
 41
0.0
 71
     2
 72
     1
  1
1  OF  1
  7
SLDTEXTSTYLE0
 73
     1
 44
1.0
  0
MTEXT
  5
A4
330
1F
100
AcDbEntity
  8
0
  6
Continuous
 62
     7
370
     0
100
AcDbMText
 10
1541.9619898615
 20
65.703721757
 30
0.0
 40
5.2916666667
 41
0.0
 71
     1
 72
     1
  1
DRAWING NUMBER
  7
SLDTEXTSTYLE0
 73
     1
 44
1.0
  0
MTEXT
  5
A5
330
1F
100
AcDbEntity
  8
SLD-0
 62
     7
100
AcDbMText
 10
1014.4737745067
 20
65.6368225622
 30
0.0
 40
5.2916666667
 41
0.0
 71
     1
 72
     1
  1
TECH DIRECTOR
  7
SLDTEXTSTYLE0
 73
     1
 44
1.0
  0
MTEXT
  5
A6
330
1F
100
AcDbEntity
  8
SLD-0
 62
     7
100
AcDbMText
 10
906.8023411753
 20
65.6368225622
 30
0.0
 40
5.2916666667
 41
0.0
 71
     1
 72
     1
  1
DRAWN BY
  7
SLDTEXTSTYLE0
 73
     1
 44
1.0
  0
MTEXT
  5
A7
330
1F
100
AcDbEntity
  8
SLD-0
 62
     7
100
AcDbMText
 10
906.8023411753
 20
58.0706854131
 30
0.0
 40
7.4083333333
 41
0.0
 71
     1
 72
     1
  1
K.CASTRO
  7
SLDTEXTSTYLE0
 73
     1
 44
1.0
  0
MTEXT
  5
A8
330
1F
100
AcDbEntity
  8
SLD-0
 62
     7
100
AcDbMText
 10
1014.4737745067
 20
35.5768525952
 30
0.0
 40
7.4083333333
 41
0.0
 71
     1
 72
     1
  1
M.LUO
  7
SLDTEXTSTYLE0
 73
     1
 44
1.0
  0
MTEXT
  5
A9
330
1F
100
AcDbEntity
  8
SLD-0
 62
     7
100
AcDbMText
 10
1014.4737745067
 20
58.0706854131
 30
0.0
 40
7.4083333333
 41
0.0
 71
     1
 72
     1
  1
R.VAUCHER
  7
SLDTEXTSTYLE0
 73
     1
 44
1.0
  0
MTEXT
  5
AB
330
1F
100
AcDbEntity
  8
0
  6
Continuous
 62
     7
370
     0
100
AcDbMText
 10
438.5079743403
 20
59.7938623626
 30
0.0
 40
4.2333333333
 41
0.0
 71
     2
 72
     1
  1
THIS DOCUMENT CONTAINS CONFIDENTIAL OR PROPRIETARY INFORMATION WHICH 
  7
SLDTEXTSTYLE2
 73
     1
 44
1.0
  0
MTEXT
  5
AC
330
1F
100
AcDbEntity
  8
0
  6
Continuous
 62
     7
370
     0
100
AcDbMText
 10
438.8737292695
 20
54.1494179863
 30
0.0
 40
4.2333333333
 41
0.0
 71
     2
 72
     1
  1
IS THE PROPERTY OF QSC, LLC THAT MAY NOT BE DISCLOSED, REPRODUCED OR 
  7
SLDTEXTSTYLE2
 73
     1
 44
1.0
  0
MTEXT
  5
AD
330
1F
100
AcDbEntity
  8
0
  6
Continuous
 62
     7
370
     0
100
AcDbMText
 10
438.7915606084
 20
48.5049736101
 30
0.0
 40
4.2333333333
 41
0.0
 71
     2
 72
     1
  1
USED WITHOUT EXPRESS WRITTEN CONSENT FROM QSC, LLC. NO PORTION OF THIS 
  7
SLDTEXTSTYLE2
 73
     1
 44
1.0
  0
MTEXT
  5
AE
330
1F
100
AcDbEntity
  8
0
  6
Continuous
 62
     7
370
     0
100
AcDbMText
 10
438.6504466119
 20
42.8605292339
 30
0.0
 40
4.2333333333
 41
0.0
 71
     2
 72
     1
  1
DOCUMENT MAY BE REPRODUCED, REDISTRIBUTED, OR OTHERWISE DISCLOSED TO 
  7
SLDTEXTSTYLE2
 73
     1
 44
1.0
  0
MTEXT
  5
B0
330
1F
100
AcDbEntity
  8
0
  6
Continuous
 62
     7
370
     0
100
AcDbMText
 10
437.9528869601
 20
37.2160848577
 30
0.0
 40
4.2333333333
 41
0.0
 71
     2
 72
     1
  1
ANY THIRD PARTY WITHOUT QSC\U+2019S WRITTEN PERMISSION.
  7
SLDTEXTSTYLE3
 73
     1
 44
1.0
  0
MTEXT
  5
B1
330
1F
100
AcDbEntity
  8
0
  6
Continuous
 62
     7
370
     0
100
AcDbMText
 10
1640.5776977518
 20
34.9888696445
 30
0.0
 40
5.2916666667
 41
0.0
 71
     1
 72
     1
  1
SHEET:
  7
SLDTEXTSTYLE0
 73
     1
 44
1.0
  0
MTEXT
  5
B2
330
1F
100
AcDbEntity
  8
SLD-0
100
AcDbMText
 10
195.6614407678
 20
61.1862966648
 30
0.0
 40
8.4666666667
 41
0.0
 71
     1
 72
     1
  1
QSC, LLC
  7
SLDTEXTSTYLE0
 73
     1
 44
1.0
  0
MTEXT
  5
B3
330
1F
100
AcDbEntity
  8
0
  6
Continuous
 62
     7
370
     0
100
AcDbMText
 10
1688.0036745047
 20
65.8101826075
 30
0.0
 40
5.2916666667
 41
0.0
 71
     2
 72
     1
  1
REV
  7
SLDTEXTSTYLE0
 73
     1
 44
1.0
  0
MTEXT
  5
B4
330
1F
100
AcDbEntity
  8
SLD-0
 62
     7
100
AcDbMText
 10
1121.0923070939
 20
65.6368225622
 30
0.0
 40
5.2916666667
 41
0.0
 71
     1
 72
     1
  1
REV BY
  7
SLDTEXTSTYLE0
 73
     1
 44
1.0
  0
MTEXT
  5
B5
330
1F
100
AcDbEntity
  8
SLD-0
 62
     7
100
AcDbMText
 10
1121.0923070939
 20
58.0706854131
 30
0.0
 40
7.4083333333
 41
0.0
 71
     1
 72
     1
  1
KC
  7
SLDTEXTSTYLE0
 73
     1
 44
1.0
  0
MTEXT
  5
B6
330
1F
100
AcDbEntity
  8
SLD-0
 62
     7
100
AcDbMText
 10
1121.0923070939
 20
35.5768525952
 30
0.0
 40
7.4083333333
 41
0.0
 71
     1
 72
     1
  1
12-AUG-2024
  7
SLDTEXTSTYLE0
 73
     1
 44
1.0
  0
MTEXT
  5
B7
330
1F
100
AcDbEntity
  8
0
  6
Continuous
 62
     7
370
     0
100
AcDbMText
 10
1121.0923070939
 20
43.612480649
 30
0.0
 40
5.2916666667
 41
0.0
 71
     1
 72
     1
  1
REV DATE
  7
SLDTEXTSTYLE0
 73
     1
 44
1.0
  0
MTEXT
  5
B8
330
1F
100
AcDbEntity
  8
SLD-0
100
AcDbMText
 10
591.0943354866
 20
44.5258142709
 30
0.0
 40
5.2916666667
 41
0.0
 71
     2
 72
     1
  1
FORM
  7
SLDTEXTSTYLE0
 73
     1
 44
1.0
  0
MTEXT
  5
B9
330
1F
100
AcDbEntity
  8
0
  6
Continuous
 62
     7
370
     0
100
AcDbMText
 10
591.9227321007
 20
36.5617335982
 30
0.0
 40
7.4083333333
 41
0.0
 71
     2
 72
     1
  1
QOS40169 B
  7
SLDTEXTSTYLE0
 73
     1
 44
1.0
  0
MTEXT
  5
BA
330
1F
100
AcDbEntity
  8
SLD-0
100
AcDbMText
 10
196.885449475
 20
36.9201921417
 30
0.0
 40
6.35
 41
0.0
 71
     1
 72
     1
  1
COSTA MESA, CA 92626 USA
  7
SLDTEXTSTYLE0
 73
     1
 44
1.0
  0
MTEXT
  5
BB
330
1F
100
AcDbEntity
  8
SLD-0
100
AcDbMText
 10
196.5974025981
 20
47.7545934122
 30
0.0
 40
6.35
 41
0.0
 71
     1
 72
     1
  1
1675 MACARTHUR BLVD
  7
SLDTEXTSTYLE0
 73
     1
 44
1.0
  0
MTEXT
  5
BC
330
1F
100
AcDbEntity
  8
SLD-0
 62
     7
100
AcDbMText
 10
591.3647197975
 20
66.2879500214
 30
0.0
 40
5.2916666667
 41
0.0
 71
     2
 72
     1
  1
CAGE CODE
  7
SLDTEXTSTYLE0
 73
     1
 44
1.0
  0
LINE
  5
BD
330
1F
100
AcDbEntity
  8
0
  6
Continuous
 62
     7
370
    25
100
AcDbLine
 10
1573.0774553755
 20
1006.1547571998
 30
0.0
 11
1571.6402442822
 21
1007.0426573451
 31
0.0
  0
LINE
  5
BE
330
1F
100
AcDbEntity
  8
0
  6
Continuous
 62
     7
370
    25
100
AcDbLine
 10
1546.9870041743
 20
1007.4120849259
 30
0.0
 11
1545.5238340786
 21
1006.5676468489
 31
0.0
  0
LINE
  5
BF
330
1F
100
AcDbEntity
  8
0
  6
Continuous
 62
     7
370
    25
100
AcDbLine
 10
1578.0824474737
 20
991.6577602065
 30
0.0
 11
1578.1873435506
 21
998.6578552372
 31
0.0
  0
LINE
  5
C0
330
1F
100
AcDbEntity
  8
0
  6
Continuous
 62
     7
370
    25
100
AcDbLine
 10
1540.1916092583
 20
999.2272194319
 30
0.0
 11
1540.0867131813
 21
992.2271244011
 31
0.0
  0
SPLINE
  5
C1
330
1F
100
AcDbEntity
  8
0
  6
Continuous
 62
     7
370
    25
100
AcDbSpline
210
0.0
220
0.0
230
1.0
 70
     8
 71
     3
 72
    14
 73
    10
 74
     0
 42
0.00000001
 43
0.00000001
 40
0.0
 40
0.0
 40
0.0
 40
0.0
 40
0.0754661890894401
 40
0.2297416364717299
 40
0.3862791536597172
 40
0.5460970573760642
 40
0.7092804527830266
 40
0.8751197678060738
 40
1.0
 40
1.0
 40
1.0
 40
1.0
 10
1497.70884329624
 20
923.3294279903193
 30
0.0
 10
1497.554731564362
 20
923.2002903335944
 30
0.0
 10
1497.085569388448
 20
922.8071567072099
 30
0.0
 10
1496.442880563632
 20
921.9730060054261
 30
0.0
 10
1495.783235199847
 20
920.8527672331871
 30
0.0
 10
1495.2742813614
 20
919.5802181877204
 30
0.0
 10
1494.917029840553
 20
918.1749997672398
 30
0.0
 10
1494.726080345185
 20
916.7845761726124
 30
0.0
 10
1494.705458548642
 20
915.8437664307022
 30
0.0
 10
1494.696600338848
 20
915.4396362642076
 30
0.0
  0
SPLINE
  5
C2
330
1F
100
AcDbEntity
  8
0
  6
Continuous
 62
     7
370
    25
100
AcDbSpline
210
0.0
220
0.0
230
1.0
 70
     8
 71
     3
 72
    28
 73
    24
 74
     0
 42
0.00000001
 43
0.00000001
 40
0.0
 40
0.0
 40
0.0
 40
0.0
 40
0.0272749372444358
 40
0.0783944414818865
 40
0.1294298382417126
 40
0.1803637018771645
 40
0.2311933605038123
 40
0.2819396641323993
 40
0.3326345126160138
 40
0.3833147316639396
 40
0.4340164827662018
 40
0.4847697576606044
 40
0.5356152657688382
 40
0.5865926116717034
 40
0.6377363377620774
 40
0.6890670173424278
 40
0.7405733552815759
 40
0.7921657674021808
 40
0.843591559238175
 40
0.8944966431648498
 40
0.9444778685979182
 40
0.9932756228877875
 40
1.0
 40
1.0
 40
1.0
 40
1.0
 10
1494.696600338848
 20
915.4396362642075
 30
0.0
 10
1494.701279870727
 20
915.1443269278727
 30
0.0
 10
1494.714729921399
 20
914.2955399891944
 30
0.0
 10
1494.861837851475
 20
912.8434436830196
 30
0.0
 10
1495.184697120356
 20
911.0850963912608
 30
0.0
 10
1495.660586164778
 20
909.3038921127056
 30
0.0
 10
1496.279259612035
 20
907.5218423624159
 30
0.0
 10
1497.03291259143
 20
905.7590881451706
 30
0.0
 10
1497.911782107201
 20
904.0358551840571
 30
0.0
 10
1498.905401171089
 20
902.3718640420124
 30
0.0
 10
1500.002299799191
 20
900.7864289528834
 30
0.0
 10
1501.190275270372
 20
899.2981184752088
 30
0.0
 10
1502.456581094563
 20
897.924588462612
 30
0.0
 10
1503.788201949195
 20
896.6824556012346
 30
0.0
 10
1505.17190845606
 20
895.5874535917299
 30
0.0
 10
1506.594278435973
 20
894.654529874172
 30
0.0
 10
1508.041140577511
 20
893.8983953628522
 30
0.0
 10
1509.49658384121
 20
893.3329268743538
 30
0.0
 10
1510.940539329267
 20
892.9732853262133
 30
0.0
 10
1512.353223932361
 20
892.8220772993519
 30
0.0
 10
1513.697472839095
 20
892.9094409450141
 30
0.0
 10
1514.628647478526
 20
893.0719289606159
 30
0.0
 10
1515.074521412487
 20
893.2636895950868
 30
0.0
 10
1515.128521941659
 20
893.286914042508
 30
0.0
  0
LINE
  5
C3
330
1F
100
AcDbEntity
  8
0
  6
Continuous
 62
     7
370
    25
100
AcDbLine
 10
1537.58699382
 20
992.2645825718
 30
0.0
 11
1537.5493793208
 21
989.7544308478
 31
0.0
  0
SPLINE
  5
C4
330
1F
100
AcDbEntity
  8
0
  6
Continuous
 62
     7
370
    25
100
AcDbSpline
210
0.0
220
0.0
230
1.0
 70
     8
 71
     3
 72
    27
 73
    23
 74
     0
 42
0.00000001
 43
0.00000001
 40
0.0
 40
0.0
 40
0.0
 40
0.0
 40
0.049800499125155
 40
0.1015071495862796
 40
0.1506866429735138
 40
0.2029634989850827
 40
0.2536826542364955
 40
0.3037392994233688
 40
0.3536428068514326
 40
0.4035728422169962
 40
0.4536465133057025
 40
0.5038955167375275
 40
0.5543060908156481
 40
0.6048433511881082
 40
0.6554633289106508
 40
0.7061184994662454
 40
0.7567545873552768
 40
0.8073112492953441
 40
0.8577392255850188
 40
0.9079914039621075
 40
0.958027807642667
 40
1.0
 40
1.0
 40
1.0
 40
1.0
 10
1500.608560915076
 20
921.1207195270895
 30
0.0
 10
1500.823607958856
 20
921.233482475251
 30
0.0
 10
1501.261933132791
 20
921.4633244577188
 30
0.0
 10
1502.041407016705
 20
921.6212320412324
 30
0.0
 10
1502.936270889534
 20
921.64861643496
 30
0.0
 10
1503.933275953584
 20
921.5064483988476
 30
0.0
 10
1505.023164526646
 20
921.1816958382348
 30
0.0
 10
1506.156214410018
 20
920.6815713505848
 30
0.0
 10
1507.317449745847
 20
920.0095711403577
 30
0.0
 10
1508.489173965741
 20
919.1714962840772
 30
0.0
 10
1509.651809107074
 20
918.1770066294353
 30
0.0
 10
1510.785724182895
 20
917.0388982337416
 30
0.0
 10
1511.871441898835
 20
915.7732924131872
 30
0.0
 10
1512.890343038461
 20
914.3991677928428
 30
0.0
 10
1513.825182437447
 20
912.9378445081506
 30
0.0
 10
1514.660402826998
 20
911.4125797240417
 30
0.0
 10
1515.382524204565
 20
909.8481194030888
 30
0.0
 10
1515.980152490764
 20
908.2704490788534
 30
0.0
 10
1516.445616254802
 20
906.7052459689479
 30
0.0
 10
1516.77026575523
 20
905.1812518107315
 30
0.0
 10
1516.953164086069
 20
903.7918523755686
 30
0.0
 10
1516.973760386341
 20
902.9554355639372
 30
0.0
 10
1516.983155941909
 20
902.573881569849
 30
0.0
  0
SPLINE
  5
C5
330
1F
100
AcDbEntity
  8
0
  6
Continuous
 62
     7
370
    25
100
AcDbSpline
210
0.0
220
0.0
230
1.0
 70
     8
 71
     3
 72
    14
 73
    10
 74
     0
 42
0.00000001
 43
0.00000001
 40
0.0
 40
0.0
 40
0.0
 40
0.0
 40
0.0788294246587979
 40
0.2292838590650391
 40
0.3795336339465292
 40
0.5302172591319234
 40
0.6829027052056938
 40
0.8403511651731486
 40
0.9999999999999999
 40
0.9999999999999999
 40
0.9999999999999999
 40
0.9999999999999999
 10
1516.983155941909
 20
902.573881569849
 30
0.0
 10
1516.979457237165
 20
902.3453895946221
 30
0.0
 10
1516.968699156653
 20
901.6807961122751
 30
0.0
 10
1516.850566074863
 20
900.6662450828671
 30
0.0
 10
1516.594938136382
 20
899.5929346981773
 30
0.0
 10
1516.229344644472
 20
898.6718111556395
 30
0.0
 10
1515.766681734004
 20
897.9093227385856
 30
0.0
 10
1515.227213447
 20
897.2948246023267
 30
0.0
 10
1514.800481927875
 20
897.0166728504837
 30
0.0
 10
1514.585635598592
 20
896.8766319109493
 30
0.0
  0
SPLINE
  5
C6
330
1F
100
AcDbEntity
  8
0
  6
Continuous
 62
     7
370
    25
100
AcDbSpline
210
0.0
220
0.0
230
1.0
 70
     8
 71
     3
 72
    11
 73
     7
 74
     0
 42
0.00000001
 43
0.00000001
 40
0.0
 40
0.0
 40
0.0
 40
0.0
 40
0.0164153436935908
 40
0.4738117346034106
 40
0.9254839105932334
 40
1.0
 40
1.0
 40
1.0
 40
1.0
 10
1506.222796875901
 20
920.6172724183061
 30
0.0
 10
1506.213715584831
 20
920.6020010722874
 30
0.0
 10
1505.951593611974
 20
920.1612096345992
 30
0.0
 10
1505.596785543053
 20
919.21840221486
 30
0.0
 10
1505.241961299142
 20
918.210643922959
 30
0.0
 10
1505.146669690674
 20
917.6490179398611
 30
0.0
 10
1505.133174980732
 20
917.569483342224
 30
0.0
  0
SPLINE
  5
C7
330
1F
100
AcDbEntity
  8
0
  6
Continuous
 62
     7
370
    25
100
AcDbSpline
210
0.0
220
0.0
230
1.0
 70
     8
 71
     3
 72
     9
 73
     5
 74
     0
 42
0.00000001
 43
0.00000001
 40
0.0
 40
0.0
 40
0.0
 40
0.0
 40
0.6867504160863317
 40
0.9999999999999999
 40
0.9999999999999999
 40
0.9999999999999999
 40
0.9999999999999999
 10
1504.861817765726
 20
914.460236680616
 30
0.0
 10
1504.87110371266
 20
914.058801391403
 30
0.0
 10
1504.884625287189
 20
913.4742581864627
 30
0.0
 10
1505.003209123875
 20
912.9028236649677
 30
0.0
 10
1505.040355461376
 20
912.7238220388756
 30
0.0
  0
SPLINE
  5
C8
330
1F
100
AcDbEntity
  8
0
  6
Continuous
 62
     7
370
    25
100
AcDbSpline
210
0.0
220
0.0
230
1.0
 70
     8
 71
     3
 72
    10
 73
     6
 74
     0
 42
0.00000001
 43
0.00000001
 40
0.0
 40
0.0
 40
0.0
 40
0.0
 40
0.3462612627530156
 40
0.8223476245425324
 40
1.0
 40
1.0
 40
1.0
 40
1.0
 10
1506.489047123227
 20
908.6216122964711
 30
0.0
 10
1506.697940453805
 20
908.2571761355607
 30
0.0
 10
1507.194048314145
 20
907.3916643285529
 30
0.0
 10
1507.942341777215
 20
906.424983303528
 30
0.0
 10
1508.515602007384
 20
905.8772691155864
 30
0.0
 10
1508.671384487207
 20
905.7284287287229
 30
0.0
  0
SPLINE
  5
C9
330
1F
100
AcDbEntity
  8
0
  6
Continuous
 62
     7
370
    25
100
AcDbSpline
210
0.0
220
0.0
230
1.0
 70
     8
 71
     3
 72
    10
 73
     6
 74
     0
 42
0.00000001
 43
0.00000001
 40
0.0
 40
0.0
 40
0.0
 40
0.0
 40
0.1198124621862554
 40
0.7134128860896372
 40
1.0
 40
1.0
 40
1.0
 40
1.0
 10
1514.434962546794
 20
902.4011859372777
 30
0.0
 10
1514.53299434742
 20
902.3710031690306
 30
0.0
 10
1515.1167161785
 20
902.1912825004756
 30
0.0
 10
1515.970128203567
 20
902.0562585769668
 30
0.0
 10
1516.723226409284
 20
902.0335363913584
 30
0.0
 10
1516.968433517992
 20
902.0261380980226
 30
0.0
  0
SPLINE
  5
CA
330
1F
100
AcDbEntity
  8
0
  6
Continuous
 62
     7
370
    25
100
AcDbSpline
210
0.0
220
0.0
230
1.0
 70
     8
 71
     3
 72
    17
 73
    13
 74
     0
 42
0.00000001
 43
0.00000001
 40
0.0
 40
0.0
 40
0.0
 40
0.0
 40
0.0330449141681937
 40
0.1389802661746774
 40
0.2459990051378418
 40
0.3543137277090851
 40
0.4639804200475529
 40
0.574907052374889
 40
0.6868898142963281
 40
0.7996665966281182
 40
0.9129704409587176
 40
1.0
 40
1.0
 40
1.0
 40
1.0
 10
1481.554067626577
 20
873.0255428951946
 30
0.0
 10
1481.40749569714
 20
872.8810685488736
 30
0.0
 10
1480.791043626382
 20
872.2734384910405
 30
0.0
 10
1479.841040625153
 20
871.0377580631781
 30
0.0
 10
1478.710949136523
 20
869.3231134696405
 30
0.0
 10
1477.731418979277
 20
867.4418949611958
 30
0.0
 10
1476.895144414698
 20
865.4152020006005
 30
0.0
 10
1476.211372124899
 20
863.2470665670293
 30
0.0
 10
1475.683105478961
 20
860.9494887660725
 30
0.0
 10
1475.317630677936
 20
858.5330785140533
 30
0.0
 10
1475.120810689162
 20
856.2142013855464
 30
0.0
 10
1475.099352561057
 20
854.6788072337802
 30
0.0
 10
1475.090030643716
 20
854.0117957732165
 30
0.0
  0
SPLINE
  5
CB
330
1F
100
AcDbEntity
  8
0
  6
Continuous
 62
     7
370
    25
100
AcDbSpline
210
0.0
220
0.0
230
1.0
 70
     8
 71
     3
 72
    39
 73
    35
 74
     0
 42
0.00000001
 43
0.00000001
 40
0.0
 40
0.0
 40
0.0
 40
0.0
 40
0.0173689654716832
 40
0.0499952771256774
 40
0.0825905755856779
 40
0.1151514521652551
 40
0.1476709309882581
 40
0.1801478781276083
 40
0.2125849831195752
 40
0.244987341655157
 40
0.2773615104654839
 40
0.3097149054807093
 40
0.342055435922692
 40
0.3743912927038258
 40
0.4067306815259508
 40
0.4390794017389004
 40
0.4714459573959429
 40
0.5038388373401012
 40
0.5362663907764916
 40
0.5687366035643241
 40
0.601256709006026
 40
0.6338325434246562
 40
0.6664675260567781
 40
0.6991611134902269
 40
0.7319065725239583
 40
0.764687979962623
 40
0.7974666945062455
 40
0.8301885202471402
 40
0.8627838488227042
 40
0.8951682185206442
 40
0.9272529165839553
 40
0.9589622174216715
 40
0.9902527732296288
 40
1.0
 40
1.0
 40
1.0
 40
1.0
 10
1475.090030643716
 20
854.0117957732165
 30
0.0
 10
1475.094656815246
 20
853.5426203379545
 30
0.0
 10
1475.107972906413
 20
852.1921336929831
 30
0.0
 10
1475.254300293584
 20
849.9069541593474
 30
0.0
 10
1475.578209892477
 20
847.1480131136447
 30
0.0
 10
1476.060010422835
 20
844.345511026932
 30
0.0
 10
1476.693266008282
 20
841.5135497982986
 30
0.0
 10
1477.474575249963
 20
838.6646718852809
 30
0.0
 10
1478.399137590665
 20
835.8117730758266
 30
0.0
 10
1479.461976545954
 20
832.9675522603447
 30
0.0
 10
1480.657624214487
 20
830.1446748020397
 30
0.0
 10
1481.980214442679
 20
827.3557151355029
 30
0.0
 10
1483.423470693091
 20
824.6131366759735
 30
0.0
 10
1484.980727056066
 20
821.9292519024966
 30
0.0
 10
1486.644906921042
 20
819.3162440592647
 30
0.0
 10
1488.408587604108
 20
816.7860383574706
 30
0.0
 10
1490.264043286084
 20
814.3502493350765
 30
0.0
 10
1492.203342063874
 20
812.0200845393573
 30
0.0
 10
1494.218342839025
 20
809.8063868248829
 30
0.0
 10
1496.300735549849
 20
807.7196168727647
 30
0.0
 10
1498.442073943186
 20
805.7698497572189
 30
0.0
 10
1500.633792852541
 20
803.9667875039529
 30
0.0
 10
1502.867198869094
 20
802.3197869910314
 30
0.0
 10
1505.133419075363
 20
800.8378999541662
 30
0.0
 10
1507.423292312889
 20
799.5299071406318
 30
0.0
 10
1509.726949572878
 20
798.4044531389748
 30
0.0
 10
1512.033589648303
 20
797.4698245544332
 30
0.0
 10
1514.331204627595
 20
796.7337913652655
 30
0.0
 10
1516.606838098576
 20
796.2024755980673
 30
0.0
 10
1518.845779464804
 20
795.8821319326096
 30
0.0
 10
1521.034950482393
 20
795.7699143671916
 30
0.0
 10
1523.152484755282
 20
795.8850849065989
 30
0.0
 10
1524.746704932235
 20
796.0925644908956
 30
0.0
 10
1525.605389005615
 20
796.3302797390272
 30
0.0
 10
1525.809342237526
 20
796.386741474646
 30
0.0
  0
SPLINE
  5
CC
330
1F
100
AcDbEntity
  8
0
  6
Continuous
 62
     7
370
    25
100
AcDbSpline
210
0.0
220
0.0
230
1.0
 70
     8
 71
     3
 72
    38
 73
    34
 74
     0
 42
0.00000001
 43
0.00000001
 40
0.0
 40
0.0
 40
0.0
 40
0.0
 40
0.0053102349472977
 40
0.042075517776209
 40
0.0776387529639171
 40
0.1122053692501508
 40
0.1460775308300993
 40
0.1795137116858627
 40
0.2127025090868448
 40
0.2457721583618515
 40
0.2788058007327576
 40
0.3118432924353342
 40
0.3449173591581673
 40
0.3780470102018121
 40
0.4112400678393837
 40
0.4444970969054879
 40
0.4778140649830049
 40
0.5111841099982857
 40
0.5445986891174247
 40
0.5780483039662355
 40
0.6115229399574231
 40
0.6450123167328506
 40
0.6785060184490344
 40
0.7119913396957793
 40
0.7454564703864468
 40
0.7788908812570015
 40
0.812284132359388
 40
0.8456260504911443
 40
0.8789070565503855
 40
0.9121187222363107
 40
0.9452546682807925
 40
0.9783119600876141
 40
0.9999999999999999
 40
0.9999999999999999
 40
0.9999999999999999
 40
0.9999999999999999
 10
1492.045052815629
 20
870.4243548590518
 30
0.0
 10
1492.111387462525
 20
870.445553416453
 30
0.0
 10
1492.636988427898
 20
870.6135196717336
 30
0.0
 10
1493.722940453909
 20
870.7549204727035
 30
0.0
 10
1495.295412019369
 20
870.8328851102489
 30
0.0
 10
1496.945316987111
 20
870.7123848305982
 30
0.0
 10
1498.653384781307
 20
870.4175086814254
 30
0.0
 10
1500.418576730997
 20
869.9443530762478
 30
0.0
 10
1502.233563161536
 20
869.2948210006468
 30
0.0
 10
1504.090209137435
 20
868.4692745751519
 30
0.0
 10
1505.978187996851
 20
867.4695867723856
 30
0.0
 10
1507.886119848056
 20
866.2988663924058
 30
0.0
 10
1509.801935175372
 20
864.9617096050614
 30
0.0
 10
1511.71344854788
 20
863.4639509213267
 30
0.0
 10
1513.60831003109
 20
861.8127890854694
 30
0.0
 10
1515.47417760207
 20
860.0167361289807
 30
0.0
 10
1517.298896000499
 20
858.0855091676427
 30
0.0
 10
1519.070636286424
 20
856.0299131232351
 30
0.0
 10
1520.778005741862
 20
853.8617240616353
 30
0.0
 10
1522.410136851933
 20
851.5935768104979
 30
0.0
 10
1523.956761889452
 20
849.238858365688
 30
0.0
 10
1525.408278166146
 20
846.8116069793355
 30
0.0
 10
1526.755777856982
 20
844.3264709027541
 30
0.0
 10
1527.991130336123
 20
841.7985972631062
 30
0.0
 10
1529.10706164434
 20
839.2435071645182
 30
0.0
 10
1530.097238062349
 20
836.67693637898
 30
0.0
 10
1530.956281952426
 20
834.1147783391134
 30
0.0
 10
1531.679903343149
 20
831.5729516340753
 30
0.0
 10
1532.264648602462
 20
829.0675295744529
 30
0.0
 10
1532.709146928909
 20
826.6137235014044
 30
0.0
 10
1533.009791566902
 20
824.2290545833084
 30
0.0
 10
1533.158058904142
 20
822.1836800591468
 30
0.0
 10
1533.172952454217
 20
820.9618683804341
 30
0.0
 10
1533.178852718191
 20
820.4778325800986
 30
0.0
  0
SPLINE
  5
CD
330
1F
100
AcDbEntity
  8
0
  6
Continuous
 62
     7
370
    25
100
AcDbSpline
210
0.0
220
0.0
230
1.0
 70
     8
 71
     3
 72
    16
 73
    12
 74
     0
 42
0.00000001
 43
0.00000001
 40
0.0
 40
0.0
 40
0.0
 40
0.0
 40
0.0620353958277871
 40
0.1804513262115057
 40
0.2987291042336473
 40
0.4170117443099496
 40
0.5355180674417442
 40
0.6546175491000125
 40
0.7748500728373857
 40
0.8969584457856309
 40
1.0
 40
1.0
 40
1.0
 40
1.0
 10
1533.178852718191
 20
820.4778325800986
 30
0.0
 10
1533.17506873561
 20
820.0992898525179
 30
0.0
 10
1533.164061718309
 20
818.9981678832263
 30
0.0
 10
1533.042345177606
 20
817.2564711789438
 30
0.0
 10
1532.773168767301
 20
815.3044635657235
 30
0.0
 10
1532.376631450434
 20
813.488748379079
 30
0.0
 10
1531.861439933456
 20
811.8164872042398
 30
0.0
 10
1531.234392721736
 20
810.2923117962423
 30
0.0
 10
1530.498487197251
 20
808.9248062933407
 30
0.0
 10
1529.716974388772
 20
807.7647555980296
 30
0.0
 10
1529.142658441347
 20
807.1438210921718
 30
0.0
 10
1528.879818437007
 20
806.8596457546302
 30
0.0
  0
LINE
  5
CE
330
1F
100
AcDbEntity
  8
0
  6
Continuous
 62
     7
370
    25
100
AcDbLine
 10
1455.0687388354
 20
992.6043206999
 30
0.0
 11
1455.0687388354
 21
803.9833931543
 31
0.0
  0
LINE
  5
CF
330
1F
100
AcDbEntity
  8
0
  6
Continuous
 62
     7
370
    25
100
AcDbLine
 10
1626.8603265955
 20
816.8883389653
 30
0.0
 11
1626.8603265955
 21
994.6942655569
 31
0.0
  0
SPLINE
  5
D0
330
1F
100
AcDbEntity
  8
0
  6
Continuous
 62
     7
370
    25
100
AcDbSpline
210
0.0
220
0.0
230
1.0
 70
     8
 71
     3
 72
    17
 73
    13
 74
     0
 42
0.00000001
 43
0.00000001
 40
0.0
 40
0.0
 40
0.0
 40
0.0
 40
0.1109821211934229
 40
0.2056410860970628
 40
0.3024768012172962
 40
0.4015446817381433
 40
0.5040090073412717
 40
0.6109580830540008
 40
0.7230856616503476
 40
0.8231890315607916
 40
0.9229273704794208
 40
1.0
 40
1.0
 40
1.0
 40
1.0
 10
1512.934854893382
 20
849.9922670172134
 30
0.0
 10
1512.95709495409
 20
849.3253488724439
 30
0.0
 10
1512.998304026233
 20
848.0896023381963
 30
0.0
 10
1513.310294225947
 20
846.2952370311292
 30
0.0
 10
1513.767715035527
 20
844.6088942252132
 30
0.0
 10
1514.415725402306
 20
842.9345596064287
 30
0.0
 10
1515.262772163568
 20
841.2829699430774
 30
0.0
 10
1516.328798611265
 20
839.6681831392706
 30
0.0
 10
1517.562420907569
 20
838.1945035313104
 30
0.0
 10
1518.922573379809
 20
836.9027141602845
 30
0.0
 10
1520.233097994312
 20
835.8705524312776
 30
0.0
 10
1521.148136963399
 20
835.3301960940555
 30
0.0
 10
1521.547006219554
 20
835.0946525406467
 30
0.0
  0
ARC
  5
D1
330
1F
100
AcDbEntity
  8
0
  6
Continuous
 62
     7
370
    25
100
AcDbCircle
 10
1562.5386445414
 20
952.7466035883
 30
0.0
 40
22.24265923825049
100
AcDbArc
 50
255.9588234979
 51
294.7210131607
  0
LWPOLYLINE
  5
D2
330
1F
100
AcDbEntity
  8
0
  6
Continuous
 62
     7
370
    25
100
AcDbPolyline
 90
       22
 70
   128
 43
0.0
 10
1456.1748664807
 20
989.4556908643
 10
1459.0076491876
 20
985.7791631752
 10
1462.0721217711
 20
982.1650920973
 10
1465.3641600101
 20
978.6183415108
 10
1468.8793334218
 20
975.1436846951
 10
1472.6129112241
 20
971.7457979043
 10
1476.5598687022
 20
968.4292540743
 10
1480.7148939715
 20
965.1985166679
 10
1485.072395126
 20
962.0579336683
 10
1489.6265077641
 20
959.0117317273
 10
1494.3711028809
 20
956.064010477
 10
1499.2997951169
 20
953.2187370125
 10
1504.4059513516
 20
950.4797405527
 10
1509.6826996302
 20
947.8507072873
 10
1515.122938412
 20
945.3351754155
 10
1520.7193461283
 20
942.9365303841
 10
1526.4643910351
 20
940.6580003318
 10
1532.35034135
 20
938.5026517445
 10
1538.3692756578
 20
936.473385328
 10
1544.5130935708
 20
934.5729321049
 10
1550.7735266309
 20
932.8038497385
 10
1557.1421494374
 20
931.1685190908
  0
LWPOLYLINE
  5
D3
330
1F
100
AcDbEntity
  8
0
  6
Continuous
 62
     7
370
    25
100
AcDbPolyline
 90
        9
 70
   128
 43
0.0
 10
1458.5547140986
 20
997.9408853353
 10
1457.3662750608
 20
997.0405182236
 10
1456.4074011806
 20
996.0531270115
 10
1455.6969025171
 20
994.9980811772
 10
1455.2487167965
 20
993.8960773679
 10
1455.0716359988
 20
992.768733397
 10
1455.1691338864
 20
991.6381641714
 10
1455.5392978608
 20
990.5265478672
 10
1456.1748664807
 20
989.4556908643
  0
LINE
  5
D4
330
1F
100
AcDbEntity
  8
0
  6
Continuous
 62
     7
370
    25
100
AcDbLine
 10
1458.5547140986
 20
997.9408853353
 30
0.0
 11
1571.8405299733
 21
932.5423758772
 31
0.0
  0
LWPOLYLINE
  5
D5
330
1F
100
AcDbEntity
  8
0
  6
Continuous
 62
     7
370
    25
100
AcDbPolyline
 90
       20
 70
   128
 43
0.0
 10
1549.9319176869
 20
919.6409026924
 10
1543.7734633213
 20
921.4016484931
 10
1537.7293399501
 20
923.2898140806
 10
1531.807455037
 20
925.3029291875
 10
1526.0155561222
 20
927.4383600764
 10
1520.3612206865
 20
929.6933129853
 10
1514.8518462381
 20
932.0648377829
 10
1509.4946406341
 20
934.549831828
 10
1504.2966126505
 20
937.1450440288
 10
1499.2645628133
 20
939.8470790963
 10
1494.4050745007
 20
942.6524019861
 10
1489.7245053306
 20
945.5573425238
 10
1485.2289788427
 20
948.5581002057
 10
1480.9243764875
 20
951.6507491721
 10
1476.8163299313
 20
954.8312433424
 10
1472.9102136885
 20
958.0954217094
 10
1469.2111380904
 20
961.4390137826
 10
1465.7239425988
 20
964.8576451753
 10
1462.4531894752
 20
968.3468433278
 10
1459.403157812
 20
971.9020433586
  0
LINE
  5
D6
330
1F
100
AcDbEntity
  8
0
  6
Continuous
 62
     7
370
    25
100
AcDbLine
 10
1459.403157812
 20
971.9020433586
 30
0.0
 11
1459.403157812
 21
810.0636544428
 31
0.0
  0
LWPOLYLINE
  5
D7
330
1F
100
AcDbEntity
  8
0
  6
Continuous
 62
     7
370
    25
100
AcDbPolyline
 90
       20
 70
   128
 43
0.0
 10
1459.403157812
 20
810.0636544428
 10
1462.4531894752
 20
806.5084544121
 10
1465.7239425988
 20
803.0192562596
 10
1469.2111380904
 20
799.6006248669
 10
1472.9102136885
 20
796.2570327937
 10
1476.8163299313
 20
792.9928544267
 10
1480.9243764875
 20
789.8123602563
 10
1485.2289788427
 20
786.71971129
 10
1489.7245053306
 20
783.718953608
 10
1494.4050745007
 20
780.8140130704
 10
1499.2645628133
 20
778.0086901805
 10
1504.2966126505
 20
775.306655113
 10
1509.4946406341
 20
772.7114429122
 10
1514.8518462381
 20
770.2264488671
 10
1520.3612206865
 20
767.8549240696
 10
1526.0155561222
 20
765.5999711606
 10
1531.807455037
 20
763.4645402717
 10
1537.7293399501
 20
761.4514251648
 10
1543.7734633213
 20
759.5632595773
 10
1549.9319176869
 20
757.8025137766
  0
LINE
  5
D8
330
1F
100
AcDbEntity
  8
0
  6
Continuous
 62
     7
370
    25
100
AcDbLine
 10
1549.9319176869
 20
757.8025137766
 30
0.0
 11
1549.9319176869
 21
919.6409026924
 31
0.0
  0
LINE
  5
D9
330
1F
100
AcDbEntity
  8
0
  6
Continuous
 62
     7
370
    25
100
AcDbLine
 10
1456.1748664807
 20
989.4556908643
 30
0.0
 11
1456.1748664807
 21
800.8347633187
 31
0.0
  0
LINE
  5
DA
330
1F
100
AcDbEntity
  8
0
  6
Continuous
 62
     7
370
    25
100
AcDbLine
 10
1557.1421494374
 20
931.1685190908
 30
0.0
 11
1557.1421494374
 21
742.5475915452
 31
0.0
  0
LWPOLYLINE
  5
DB
330
1F
100
AcDbEntity
  8
0
  6
Continuous
 62
     7
370
    25
100
AcDbPolyline
 90
       22
 70
   128
 43
0.0
 10
1456.1748664807
 20
800.8347633187
 10
1459.0076491876
 20
797.1582356296
 10
1462.0721217711
 20
793.5441645517
 10
1465.3641600101
 20
789.9974139652
 10
1468.8793334218
 20
786.5227571495
 10
1472.6129112241
 20
783.1248703587
 10
1476.5598687022
 20
779.8083265287
 10
1480.7148939715
 20
776.5775891222
 10
1485.072395126
 20
773.4370061227
 10
1489.6265077641
 20
770.3908041817
 10
1494.3711028809
 20
767.4430829314
 10
1499.2997951169
 20
764.5978094669
 10
1504.4059513516
 20
761.8588130071
 10
1509.6826996302
 20
759.2297797417
 10
1515.122938412
 20
756.7142478699
 10
1520.7193461283
 20
754.3156028385
 10
1526.4643910351
 20
752.0370727862
 10
1532.35034135
 20
749.8817241989
 10
1538.3692756578
 20
747.8524577824
 10
1544.5130935708
 20
745.9520045593
 10
1550.7735266309
 20
744.1829221929
 10
1557.1421494374
 20
742.5475915452
  0
ELLIPSE
  5
DC
330
1F
100
AcDbEntity
  8
0
  6
Continuous
 62
     7
370
    25
100
AcDbEllipse
 10
1562.5963272583
 20
750.0309761784
 30
0.0
 11
13.99356986886892
 21
0.698077253539509
 31
0.0
210
0.0
220
0.0
230
1.0
 40
0.6077648379
 41
5.403297983187235
 42
5.605941901705718
  0
ARC
  5
DD
330
1F
100
AcDbEntity
  8
0
  6
Continuous
 62
     7
370
    25
100
AcDbCircle
 10
1562.5386445414
 20
764.1256760427
 30
0.0
 40
22.24265923824905
100
AcDbArc
 50
255.9588234979
 51
294.7210131607
  0
ELLIPSE
  5
DE
330
1F
100
AcDbEntity
  8
0
  6
Continuous
 62
     7
370
    25
100
AcDbEllipse
 10
1562.5963272583
 20
938.5720826006
 30
0.0
 11
13.99583809639194
 21
-0.6262152466714498
 31
0.0
210
0.0
220
0.0
230
1.0
 40
0.5450911212
 41
5.457991552837708
 42
5.660635471356199
  0
LINE
  5
DF
330
1F
100
AcDbEntity
  8
0
  6
Continuous
 62
     7
370
    25
100
AcDbLine
 10
1573.7674250938
 20
933.6148098507
 30
0.0
 11
1573.7674250938
 21
745.2454811336
 31
0.0
  0
ELLIPSE
  5
E0
330
1F
100
AcDbEntity
  8
0
  6
Continuous
 62
     7
370
    25
100
AcDbEllipse
 10
1618.8603265955
 20
994.9457059072
 30
0.0
 11
7.997621769367243
 21
-0.3578372838122732
 31
0.0
210
0.0
220
0.0
230
1.0
 40
0.5450911212
 41
6.080030704340357
 42
7.092967627704464
  0
ELLIPSE
  5
E1
330
1F
100
AcDbEntity
  8
0
  6
Continuous
 62
     7
370
    25
100
AcDbEllipse
 10
1334.3867571904
 20
1039.8420830611
 30
0.0
 11
299.9108163512642
 21
-13.41889814296269
 31
0.0
210
0.0
220
0.0
230
1.0
 40
0.5450911212
 41
5.660635471356162
 42
6.080030704340369
  0
ELLIPSE
  5
E2
330
1F
100
AcDbEntity
  8
0
  6
Continuous
 62
     7
370
    25
100
AcDbEllipse
 10
1469.0687388354
 20
992.5644101381
 30
0.0
 11
13.99583809639216
 21
-0.6262152466716771
 31
0.0
210
0.0
220
0.0
230
1.0
 40
0.5450911212
 41
2.242114476873169
 42
2.444758395391658
  0
ELLIPSE
  5
E3
330
1F
100
AcDbEntity
  8
0
  6
Continuous
 62
     7
370
    25
100
AcDbEllipse
 10
1641.4531700622
 20
862.576416116
 30
0.0
 11
299.9108163512644
 21
-13.41889814296269
 31
0.0
210
0.0
220
0.0
230
1.0
 40
0.5450911212
 41
1.822719243889006
 42
2.242114476873208
  0
ELLIPSE
  5
E4
330
1F
100
AcDbEntity
  8
0
  6
Continuous
 62
     7
370
    25
100
AcDbEllipse
 10
1575.5836907117
 20
1019.9287760234
 30
0.0
 11
7.997621769367015
 21
-0.3578372838121595
 31
0.0
210
0.0
220
0.0
230
1.0
 40
0.5450911212
 41
0.8097823205248107
 42
1.822719243889006
  0
LINE
  5
E5
330
1F
100
AcDbEntity
  8
0
  6
Continuous
 62
     7
370
    25
100
AcDbLine
 10
1581.2405449612
 20
1022.8388181171
 30
0.0
 11
1582.3920206152
 21
1022.1740853713
 31
0.0
  0
LINE
  5
E6
330
1F
100
AcDbEntity
  8
0
  6
Continuous
 62
     7
370
    25
100
AcDbLine
 10
1614.9918593055
 20
1003.3545990794
 30
0.0
 11
1624.517180845
 21
997.855748001
 31
0.0
  0
LINE
  5
E7
330
1F
100
AcDbEntity
  8
0
  6
Continuous
 62
     7
370
    25
100
AcDbLine
 10
1626.6541230176
 20
815.7833395764
 30
0.0
 11
1626.6541230176
 21
993.715668177
 31
0.0
  0
ELLIPSE
  5
E8
330
1F
100
AcDbEntity
  8
0
  6
Continuous
 62
     7
370
    25
100
AcDbEllipse
 10
1334.3867571904
 20
847.7918035221
 30
0.0
 11
299.8622114757678
 21
14.95879829012836
 31
0.0
210
0.0
220
0.0
230
1.0
 40
0.6077648379
 41
5.605941901705675
 42
6.025337134689883
  0
LINE
  5
E9
330
1F
100
AcDbEntity
  8
0
  6
Continuous
 62
     7
370
    25
100
AcDbLine
 10
1462.1550675054
 20
811.6522980936
 30
0.0
 11
1549.9319176869
 21
760.9798010783
 31
0.0
  0
LINE
  5
EA
330
1F
100
AcDbEntity
  8
0
  6
Continuous
 62
     7
370
    25
100
AcDbLine
 10
1462.1550675054
 20
968.6804916303
 30
0.0
 11
1462.1550675054
 21
811.6522980936
 31
0.0
  0
ARC
  5
EB
330
1F
100
AcDbEntity
  8
0
  6
Continuous
 62
     7
370
    25
100
AcDbCircle
 10
1538.7081236885
 20
884.1410672302
 30
0.0
 40
4.610414422718033
100
AcDbArc
 50
182.6054784857
 51
237.39452166
  0
LINE
  5
EC
330
1F
100
AcDbEntity
  8
0
  6
Continuous
 62
     7
370
    25
100
AcDbLine
 10
1536.2237957279
 20
880.25725007
 30
0.0
 11
1541.8806499774
 21
876.9916176227
 31
0.0
  0
ARC
  5
ED
330
1F
100
AcDbEntity
  8
0
  6
Continuous
 62
     7
370
    25
100
AcDbCircle
 10
1542.7087472187
 20
878.0068462999
 30
0.0
 40
1.310127592285482
100
AcDbArc
 50
230.7967147643
 51
9.2140369905
  0
LINE
  5
EE
330
1F
100
AcDbEntity
  8
0
  6
Continuous
 62
     7
370
    25
100
AcDbLine
 10
1544.001970321
 20
878.2166278906
 30
0.0
 11
1544.001970321
 21
897.8136073759
 31
0.0
  0
ARC
  5
EF
330
1F
100
AcDbEntity
  8
0
  6
Continuous
 62
     7
370
    25
100
AcDbCircle
 10
1539.3963220169
 20
897.6040248191
 30
0.0
 40
4.610414422716397
100
AcDbArc
 50
2.6054784857
 51
57.39452166
  0
LINE
  5
F0
330
1F
100
AcDbEntity
  8
0
  6
Continuous
 62
     7
370
    25
100
AcDbLine
 10
1541.8806499774
 20
901.4878419793
 30
0.0
 11
1536.2237957279
 21
904.7534744266
 31
0.0
  0
ARC
  5
F1
330
1F
100
AcDbEntity
  8
0
  6
Continuous
 62
     7
370
    25
100
AcDbCircle
 10
1535.3956984867
 20
903.7382457494
 30
0.0
 40
1.31012759228557
100
AcDbArc
 50
50.7967147643
 51
189.2140369905
  0
LINE
  5
F2
330
1F
100
AcDbEntity
  8
0
  6
Continuous
 62
     7
370
    25
100
AcDbLine
 10
1534.1024753844
 20
903.5284641586
 30
0.0
 11
1534.1024753844
 21
883.9314846734
 31
0.0
  0
LWPOLYLINE
  5
F3
330
1F
100
AcDbEntity
  8
0
  6
Continuous
 62
     7
370
    25
100
AcDbPolyline
 90
       17
 70
   128
 43
0.0
 10
1538.3759427815
 20
784.2437712092
 10
1539.734426086
 20
787.7556754392
 10
1540.9178233199
 20
791.4371773928
 10
1541.9235562239
 20
795.2802562064
 10
1542.7494336144
 20
799.2765389905
 10
1543.3936561579
 20
803.4173190709
 10
1543.8548202912
 20
807.6935749581
 10
1544.1319212792
 20
812.0959900025
 10
1544.2243554037
 20
816.6149726922
 10
1544.1319212792
 20
821.2406775505
 10
1543.8548202912
 20
825.9630265856
 10
1543.3936561579
 20
830.7717312476
 10
1542.7494336144
 20
835.6563148444
 10
1541.9235562239
 20
840.606135367
 10
1540.9178233199
 20
845.6104086748
 10
1539.734426086
 20
850.6582319917
 10
1538.3759427815
 20
855.7386076593
  0
LWPOLYLINE
  5
F4
330
1F
100
AcDbEntity
  8
0
  6
Continuous
 62
     7
370
    25
100
AcDbPolyline
 90
       17
 70
   128
 43
0.0
 10
1538.3759427815
 20
855.7386076593
 10
1534.6555779858
 20
859.4550549193
 10
1530.8758740175
 20
863.0035750226
 10
1527.045065692
 20
866.3764368326
 10
1523.1714991652
 20
869.5662919181
 10
1519.2636137503
 20
872.5661905637
 10
1515.3299235308
 20
875.3695969103
 10
1511.3789988107
 20
877.9704031958
 10
1507.4194474429
 20
880.3629430611
 10
1503.4598960752
 20
882.5420038958
 10
1499.5089713551
 20
884.5028381949
 10
1495.5752811355
 20
886.241173902
 10
1491.6673957207
 20
887.753223717
 10
1487.7938291939
 20
889.0356933471
 10
1483.9630208683
 20
890.0857886845
 10
1480.1833169
 20
890.9012218936
 10
1476.4629521044
 20
891.4802163957
  0
LWPOLYLINE
  5
F5
330
1F
100
AcDbEntity
  8
0
  6
Continuous
 62
     7
370
    25
100
AcDbPolyline
 90
        9
 70
   128
 43
0.0
 10
1519.7938161137
 20
901.757473458
 10
1519.7069616081
 20
900.1175532542
 10
1519.4476173382
 20
898.6009340129
 10
1519.019423929
 20
897.2289057439
 10
1518.4283922775
 20
896.0207287164
 10
1517.6828191723
 20
894.9933630877
 10
1516.7931708257
 20
894.161230819
 10
1515.7719359502
 20
893.5360132235
 10
1515.1489874183
 20
893.2800630856
  0
LWPOLYLINE
  5
F6
330
1F
100
AcDbEntity
  8
0
  6
Continuous
 62
     7
370
    25
100
AcDbPolyline
 90
       22
 70
   128
 43
0.0
 10
1497.713480053
 20
923.3680078127
 10
1498.5407481203
 20
923.9799494536
 10
1499.6225081715
 20
924.4982316127
 10
1500.8137201589
 20
924.7975634534
 10
1502.0976620775
 20
924.8737430127
 10
1503.4563101971
 20
924.7257008965
 10
1504.8705920763
 20
924.3555152917
 10
1506.3206542977
 20
923.7683827927
 10
1507.7861411663
 20
922.9725454529
 10
1509.2464804589
 20
921.9791750838
 10
1510.6811722127
 20
920.8022164281
 10
1512.0700765006
 20
919.4581914053
 10
1513.3936961509
 20
917.9659671806
 10
1514.633450445
 20
916.3464913112
 10
1515.7719359502
 20
914.6224976882
 10
1516.7931708257
 20
912.8181874032
 10
1517.6828191723
 20
910.9588890174
 10
1518.4283922775
 20
909.0707030045
 10
1519.019423929
 20
907.1801353573
 10
1519.4476173382
 20
905.3137255012
 10
1519.7069616081
 20
903.4976737395
 10
1519.7938161137
 20
901.757473458
  0
ARC
  5
F7
330
1F
100
AcDbEntity
  8
0
  6
Continuous
 62
     7
370
    25
100
AcDbCircle
 10
1545.7791915004
 20
888.2231077893
 30
0.0
 40
4.610414422717434
100
AcDbArc
 50
182.6054784857
 51
237.39452166
  0
LINE
  5
F8
330
1F
100
AcDbEntity
  8
0
  6
Continuous
 62
     7
370
    25
100
AcDbLine
 10
1541.1735431963
 20
901.8960460352
 30
0.0
 11
1541.1735431963
 21
888.0135252325
 31
0.0
  0
LINE
  5
F9
330
1F
100
AcDbEntity
  8
0
  6
Continuous
 62
     7
370
    25
100
AcDbLine
 10
1543.2948635398
 20
884.3392906291
 30
0.0
 11
1544.001970321
 21
883.9310865732
 31
0.0
  0
LINE
  5
FA
330
1F
100
AcDbEntity
  8
0
  6
Continuous
 62
     7
370
    25
100
AcDbLine
 10
1534.1024753844
 20
883.9314846734
 30
0.0
 11
1541.1735431963
 21
888.0135252325
 31
0.0
  0
LWPOLYLINE
  5
FB
330
1F
100
AcDbEntity
  8
0
  6
Continuous
 62
     7
370
    25
100
AcDbPolyline
 90
       54
 70
   128
 43
0.0
 10
1547.1951733826
 20
993.8934667186
 10
1548.7012734207
 20
993.1197133679
 10
1550.3549513115
 20
992.4508211112
 10
1552.1329930422
 20
991.8961797297
 10
1554.0104388045
 20
991.4635751725
 10
1555.9609333753
 20
991.1590802594
 10
1557.9570960863
 20
990.9869694314
 10
1559.9709051888
 20
990.9496587474
 10
1561.9740912172
 20
991.0476719674
 10
1563.9385338308
 20
991.2796332009
 10
1565.8366565614
 20
991.6422862204
 10
1567.6418139265
 20
992.1305401726
 10
1569.3286654737
 20
992.7375410423
 10
1570.873531505
 20
993.4547678678
 10
1572.2547254875
 20
994.2721523566
 10
1573.4528584855
 20
995.1782202222
 10
1574.451111338
 20
996.1602522581
 10
1575.2354707631
 20
997.2044628869
 10
1575.7949260739
 20
998.2961936804
 10
1576.121623744
 20
999.4201191314
 10
1576.2109776544
 20
1000.5604617902
 10
1576.061733472
 20
1001.7012137456
 10
1575.675986258
 20
1002.8263613406
 10
1575.0591510577
 20
1003.9201099694
 10
1574.2198868852
 20
1004.9671057988
 10
1573.1699751698
 20
1005.9526513023
 10
1571.9241543705
 20
1006.8629115814
 10
1570.4999130805
 20
1007.6851085771
 10
1568.9172445256
 20
1008.407700446
 10
1567.1983659029
 20
1009.020543582
 10
1565.3674065005
 20
1009.5150350109
 10
1563.450068975
 20
1009.8842331571
 10
1561.4732685423
 20
1010.1229552877
 10
1559.4647551472
 20
1010.2278502674
 10
1557.4527239152
 20
1010.1974456007
 10
1555.4654193544
 20
1010.0321681023
 10
1553.5307388644
 20
1009.7343379061
 10
1551.6758411186
 20
1009.3081358952
 10
1549.9267648153
 20
1008.7595450115
 10
1548.3080631517
 20
1008.0962662685
 10
1546.842459151
 20
1007.3276106459
 10
1545.5505266808
 20
1006.4643683837
 10
1544.4504016409
 20
1005.518657511
 10
1543.5575273754
 20
1004.5037537354
 10
1542.8844378818
 20
1003.4339040813
 10
1542.4405818611
 20
1002.3241268926
 10
1542.232190079
 20
1001.1900010085
 10
1542.2621878992
 20
1000.0474470702
 10
1542.5301542181
 20
998.9125040306
 10
1543.032327376
 20
997.8011040021
 10
1543.7616579626
 20
996.7288486049
 10
1544.707907775
 20
995.7107899544
 10
1545.8577935402
 20
994.7612193624
 10
1547.1951733826
 20
993.8934667186
  0
LWPOLYLINE
  5
FC
330
1F
100
AcDbEntity
  8
0
  6
Continuous
 62
     7
370
    25
100
AcDbPolyline
 90
       15
 70
   128
 43
0.0
 10
1545.7564937819
 20
991.4586029702
 10
1544.3367115913
 20
992.3740430907
 10
1543.1037115361
 20
993.3720858374
 10
1542.0729993072
 20
994.4401802437
 10
1541.2575367091
 20
995.5648944028
 10
1540.667578657
 20
996.7320843815
 10
1540.3105442157
 20
997.9270720886
 10
1540.1909233005
 20
999.1348298604
 10
1540.3102202138
 20
1000.3401694421
 10
1540.6669347277
 20
1001.5279329891
 10
1541.2565809502
 20
1002.6831836857
 10
1542.0717437379
 20
1003.791393584
 10
1543.1021719459
 20
1004.8386263016
 10
1544.3349073415
 20
1005.8117122795
 10
1545.5238340786
 20
1006.5676468489
  0
LWPOLYLINE
  5
FD
330
1F
100
AcDbEntity
  8
0
  6
Continuous
 62
     7
370
    25
100
AcDbPolyline
 90
       29
 70
   128
 43
0.0
 10
1573.0774553755
 20
1006.1547571998
 10
1574.0422412176
 20
1005.5110315785
 10
1575.2752412729
 20
1004.5129888318
 10
1576.3059535017
 20
1003.4448944254
 10
1577.1214160998
 20
1002.3201802663
 10
1577.711374152
 20
1001.1529902876
 10
1578.0684085933
 20
999.9580025805
 10
1578.1880295085
 20
998.7502448087
 10
1578.0687325952
 20
997.5449052271
 10
1577.7120180813
 20
996.35714168
 10
1577.1223718588
 20
995.2018909835
 10
1576.307209071
 20
994.0936810851
 10
1575.276780863
 20
993.0464483675
 10
1574.0440454674
 20
992.0733623896
 10
1572.624505247
 20
991.1866602722
 10
1571.0360117437
 20
990.397492809
 10
1569.298541185
 20
989.7157842386
 10
1567.4339432713
 20
989.1501074419
 10
1565.4656664032
 20
988.7075761328
 10
1563.4184628043
 20
988.3937553993
 10
1561.3180772477
 20
988.2125917191
 10
1559.1909233005
 20
988.1663633308
 10
1557.0637511577
 20
988.255651583
 10
1554.9633112433
 20
988.4793336242
 10
1552.9160178078
 20
988.8345965229
 10
1550.9476167542
 20
989.3169726421
 10
1549.0828618676
 20
989.9203958223
 10
1547.3452035229
 20
990.6372776667
 10
1545.7564937819
 20
991.4586029702
  0
LWPOLYLINE
  5
FE
330
1F
100
AcDbEntity
  8
0
  6
Continuous
 62
     7
370
    25
100
AcDbPolyline
 90
       22
 70
   128
 43
0.0
 10
1545.6515977049
 20
984.4585079394
 10
1547.2403074459
 20
983.6371826359
 10
1548.9779657907
 20
982.9203007915
 10
1550.8427206772
 20
982.3168776113
 10
1552.8111217308
 20
981.8345014921
 10
1554.8584151663
 20
981.4792385934
 10
1556.9588550807
 20
981.2555565522
 10
1559.0860272235
 20
981.1662683
 10
1561.2131811707
 20
981.2124966883
 10
1563.3135667273
 20
981.3936603685
 10
1565.3607703262
 20
981.707481102
 10
1567.3290471943
 20
982.1500124111
 10
1569.1936451081
 20
982.7156892078
 10
1570.9311156667
 20
983.3973977782
 10
1572.51960917
 20
984.1865652415
 10
1573.9391493904
 20
985.0732673588
 10
1575.171884786
 20
986.0463533367
 10
1576.202312994
 20
987.0935860543
 10
1577.0174757818
 20
988.2017959527
 10
1577.6071220043
 20
989.3570466492
 10
1577.9638365182
 20
990.5448101963
 10
1578.0824474737
 20
991.6577602065
  0
LWPOLYLINE
  5
FF
330
1F
100
AcDbEntity
  8
0
  6
Continuous
 62
     7
370
    25
100
AcDbPolyline
 90
        9
 70
   128
 43
0.0
 10
1540.0867131813
 20
992.2271244011
 10
1540.0860272235
 20
992.1347348296
 10
1540.2056481387
 20
990.9269770578
 10
1540.56268258
 20
989.7319893507
 10
1541.1526406321
 20
988.564799372
 10
1541.9681032303
 20
987.4400852129
 10
1542.9988154591
 20
986.3719908066
 10
1544.2318155144
 20
985.3739480599
 10
1545.6515977049
 20
984.4585079394
  0
LWPOLYLINE
  5
100
330
1F
100
AcDbEntity
  8
0
  6
Continuous
 62
     7
370
    25
100
AcDbPolyline
 90
       52
 70
   128
 43
0.0
 10
1517.5084110705
 20
901.8521975389
 10
1517.4239026048
 20
903.4831913669
 10
1517.1716582697
 20
905.1870323888
 10
1516.7555018324
 20
906.9378921113
 10
1516.1817418001
 20
908.7092292859
 10
1515.4590757901
 20
910.4741922466
 10
1514.5984586825
 20
912.206025954
 10
1513.6129365554
 20
913.8784775744
 10
1512.5174489196
 20
915.4661944461
 10
1511.328602251
 20
916.9451083997
 10
1510.0644182533
 20
918.2928006072
 10
1508.7440606671
 20
919.4888414284
 10
1507.3875447677
 20
920.5151001039
 10
1506.0154339534
 20
921.356019598
 10
1504.6485280253
 20
921.9988524285
 10
1503.307547884
 20
922.4338539049
 10
1502.0128214216
 20
922.6544298483
 10
1500.7839753715
 20
922.6572365523
 10
1499.639637787
 20
922.4422314699
 10
1498.5971556597
 20
922.0126738592
 10
1497.6723319558
 20
921.3750753755
 10
1496.87918606
 20
920.5391013621
 10
1496.2297412556
 20
919.5174243329
 10
1495.7338424638
 20
918.32553187
 10
1495.3990070048
 20
916.9814918483
 10
1495.2303106428
 20
915.5056785446
 10
1495.2303106428
 20
913.9204637841
 10
1495.3990070048
 20
912.2498778067
 10
1495.7338424638
 20
910.519244993
 10
1496.2297412556
 20
908.7547999723
 10
1496.87918606
 20
906.9832899324
 10
1497.6723319558
 20
905.2315691599
 10
1498.5971556597
 20
903.5261919561
 10
1499.639637787
 20
901.893010101
 10
1500.7839753715
 20
900.3567809667
 10
1502.0128214216
 20
898.940792221
 10
1503.307547884
 20
897.6665088099
 10
1504.6485280253
 20
896.5532475709
 10
1506.0154339534
 20
895.6178844097
 10
1507.3875447677
 20
894.8745984783
 10
1508.7440606671
 20
894.3346572338
 10
1510.0644182533
 20
894.0062456351
 10
1511.328602251
 20
893.8943420671
 10
1512.5174489196
 20
894.000642874
 10
1513.6129365554
 20
894.3235366439
 10
1514.5984586825
 20
894.8581286364
 10
1515.4590757901
 20
895.5963149817
 10
1516.1817418001
 20
896.5269055274
 10
1516.7555018324
 20
897.6357934694
 10
1517.1716582697
 20
898.9061691968
 10
1517.4239026048
 20
900.3187751085
 10
1517.5084110705
 20
901.8521975389
  0
LWPOLYLINE
  5
101
330
1F
100
AcDbEntity
  8
0
  6
Continuous
 62
     7
370
    25
100
AcDbPolyline
 90
       28
 70
   128
 43
0.0
 10
1574.287376123
 20
983.1660551017
 10
1572.5547956692
 20
982.301879175
 10
1570.6642892564
 20
981.5507300366
 10
1568.6380213438
 20
980.9214142233
 10
1566.4997480702
 20
980.4213098876
 10
1564.2745387345
 20
980.0562802956
 10
1561.9884818817
 20
979.8306050856
 10
1559.6683794382
 20
979.7469300929
 10
1557.341432484
 20
979.8062363305
 10
1555.0349223444
 20
980.0078284869
 10
1552.7758907421
 20
980.3493430783
 10
1550.590822757
 20
980.8267761585
 10
1548.5053363135
 20
981.4345302611
 10
1546.5438818335
 20
982.165480025
 10
1544.7294555771
 20
983.0110557324
 10
1543.0833300335
 20
983.9613437812
 10
1541.6248045195
 20
985.0052029131
 10
1540.3709789132
 20
986.1303948341
 10
1539.3365531735
 20
987.3237276976
 10
1538.5336549963
 20
988.571210767
 10
1537.9716976288
 20
989.8582184437
 10
1537.6572695073
 20
991.1696617397
 10
1537.5940570139
 20
992.4901651811
 10
1537.7828012574
 20
993.8042470726
 10
1538.2212893841
 20
995.0965010055
 10
1538.9043805216
 20
996.3517764839
 10
1539.8240660509
 20
997.5553565505
 10
1540.172216191
 20
997.9330498315
  0
LINE
  5
102
330
1F
100
AcDbEntity
  8
0
  6
Continuous
 62
     7
370
    25
100
AcDbLine
 10
1574.2497616239
 20
980.6559033777
 30
0.0
 11
1574.287376123
 21
983.1660551017
 31
0.0
  0
LWPOLYLINE
  5
103
330
1F
100
AcDbEntity
  8
0
  6
Continuous
 62
     7
370
    25
100
AcDbPolyline
 90
       23
 70
   128
 43
0.0
 10
1574.2497616239
 20
980.6559033777
 10
1572.51718117
 20
979.791727451
 10
1570.6266747572
 20
979.0405783126
 10
1568.6004068447
 20
978.4112624993
 10
1566.462133571
 20
977.9111581636
 10
1564.2369242353
 20
977.5461285716
 10
1561.9508673825
 20
977.3204533616
 10
1559.6307649391
 20
977.236778369
 10
1557.3038179848
 20
977.2960846065
 10
1554.9973078453
 20
977.4976767629
 10
1552.7382762429
 20
977.8391913544
 10
1550.5532082579
 20
978.3166244346
 10
1548.4677218144
 20
978.9243785372
 10
1546.5062673343
 20
979.655328301
 10
1544.691841078
 20
980.5009040084
 10
1543.0457155344
 20
981.4511920573
 10
1541.5871900204
 20
982.4950511891
 10
1540.3333644141
 20
983.6202431101
 10
1539.2989386743
 20
984.8135759736
 10
1538.4960404972
 20
986.061059043
 10
1537.9340831297
 20
987.3480667198
 10
1537.6196550081
 20
988.6595100157
 10
1537.5493793208
 20
989.7544308478
  0
LINE
  5
104
330
1F
100
AcDbEntity
  8
0
  6
Continuous
 62
     7
370
    25
100
AcDbLine
 10
1560.846327401
 20
1010.1703064355
 30
0.0
 11
1603.2663574192
 21
1033.8038306728
 31
0.0
  0
LINE
  5
105
330
1F
100
AcDbEntity
  8
0
  6
Continuous
 62
     7
370
    25
100
AcDbLine
 10
1633.6719490102
 20
1016.2510562686
 30
0.0
 11
1603.2663574192
 21
1033.8038306728
 31
0.0
  0
LINE
  5
106
330
1F
100
AcDbEntity
  8
0
  6
Continuous
 62
     7
370
    25
100
AcDbLine
 10
1574.287376123
 20
983.1660551017
 30
0.0
 11
1633.6719490102
 21
1016.2510562686
 31
0.0
  0
LINE
  5
107
330
1F
100
AcDbEntity
  8
0
  6
Continuous
 62
     7
370
    25
100
AcDbLine
 10
1543.2948635398
 20
884.3392906291
 30
0.0
 11
1536.2237957279
 21
880.25725007
 31
0.0
  0
LWPOLYLINE
  5
108
330
1F
100
AcDbEntity
  8
0
  6
Continuous
 62
     7
370
    25
100
AcDbPolyline
 90
       52
 70
   128
 43
0.0
 10
1517.4957190748
 20
901.859524472
 10
1517.4113068079
 20
900.3278475885
 10
1517.1593496112
 20
898.9168496941
 10
1516.7436668989
 20
897.6479200786
 10
1516.1705599971
 20
896.5402944214
 10
1515.4487166224
 20
895.6107631986
 10
1514.5890791845
 20
894.8734171558
 10
1513.6046789108
 20
894.3394337076
 10
1512.5104383058
 20
894.0169074987
 10
1511.3229449417
 20
893.9107276976
 10
1510.0602000076
 20
894.0225038819
 10
1508.7413454294
 20
894.3505416386
 10
1507.3863736981
 20
894.8898682496
 10
1506.0158248041
 20
895.6323080734
 10
1504.6504748715
 20
896.5666064789
 10
1503.3110212135
 20
897.6786004548
 10
1502.0177685822
 20
898.9514333058
 10
1500.7903213693
 20
900.3658101834
 10
1499.6472864232
 20
901.9002905758
 10
1498.6059909887
 20
903.5316133245
 10
1497.6822200431
 20
905.2350492395
 10
1496.8899770122
 20
906.9847759687
 10
1496.2412714929
 20
908.7542694385
 10
1495.7459371995
 20
910.5167059315
 10
1495.4114828951
 20
912.2453687071
 10
1495.242978566
 20
913.9140529997
 10
1495.242978566
 20
915.4974632563
 10
1495.4114828951
 20
916.9715965916
 10
1495.7459371995
 20
918.3141066468
 10
1496.2412714929
 20
919.504642338
 10
1496.8899770122
 20
920.5251563576
 10
1497.6822200431
 20
921.3601787534
 10
1498.6059909887
 20
921.997051437
 10
1499.6472864232
 20
922.4261200677
 10
1500.7903213693
 20
922.6408804024
 10
1502.0177685822
 20
922.6380768935
 10
1503.3110212135
 20
922.4177520392
 10
1504.6504748715
 20
921.9832457397
 10
1506.0158248041
 20
921.3411446677
 10
1507.3863736981
 20
920.5011824208
 10
1508.7413454294
 20
919.4760919705
 10
1510.0602000076
 20
918.2814126431
 10
1511.3229449417
 20
916.9352545595
 10
1512.5104383058
 20
915.4580241039
 10
1513.6046789108
 20
913.8721145843
 10
1514.5890791845
 20
912.2015667724
 10
1515.4487166224
 20
910.4717044702
 10
1516.1705599971
 20
908.7087506268
 10
1516.7436668989
 20
906.9394298255
 10
1517.1593496112
 20
905.1905631661
 10
1517.4113068079
 20
903.4886616844
 10
1517.4957190748
 20
901.859524472
  0
ARC
  5
109
330
1F
100
AcDbEntity
  8
0
  6
Continuous
 62
     7
370
    25
100
AcDbCircle
 10
1518.9484545182
 20
915.957078934
 30
0.0
 40
21.58123134364589
100
AcDbArc
 50
195.5705454815
 51
201.2280427733
  0
SPLINE
  5
10A
330
1F
100
AcDbEntity
  8
0
  6
Continuous
 62
     7
370
    25
100
AcDbSpline
210
0.0
220
0.0
230
1.0
 70
     8
 71
     3
 72
     8
 73
     4
 74
     0
 42
0.00000001
 43
0.00000001
 40
0.0
 40
0.0
 40
0.0
 40
0.0
 40
1.0
 40
1.0
 40
1.0
 40
1.0
 10
1499.02301003848
 20
919.6680922865122
 30
0.0
 10
1498.963679648685
 20
919.6338415815303
 30
0.0
 10
1498.899852859222
 20
919.6026557793754
 30
0.0
 10
1498.83158101518
 20
919.5744998814446
 30
0.0
  0
ARC
  5
10B
330
1F
100
AcDbEntity
  8
0
  6
Continuous
 62
     7
370
    25
100
AcDbCircle
 10
1504.0404908258
 20
915.9573711623
 30
0.0
 40
6.341637137645168
100
AcDbArc
 50
145.2234284192
 51
158.0334928039
  0
SPLINE
  5
10C
330
1F
100
AcDbEntity
  8
0
  6
Continuous
 62
     7
370
    25
100
AcDbSpline
210
0.0
220
0.0
230
1.0
 70
     8
 71
     3
 72
     8
 73
     4
 74
     0
 42
0.00000001
 43
0.00000001
 40
0.0
 40
0.0
 40
0.0
 40
0.0
 40
1.0
 40
1.0
 40
1.0
 40
1.0
 10
1497.722015309155
 20
915.519895685925
 30
0.0
 10
1497.662784440282
 20
915.4857024331478
 30
0.0
 10
1497.599617157587
 20
915.4541341407386
 30
0.0
 10
1497.532514157988
 20
915.4251903439645
 30
0.0
  0
ARC
  5
10D
330
1F
100
AcDbEntity
  8
0
  6
Continuous
 62
     7
370
    25
100
AcDbCircle
 10
1510.7165224335
 20
914.6086495321
 30
0.0
 40
13.20926996872155
100
AcDbArc
 50
176.4559594088
 51
183.5440405912
  0
SPLINE
  5
10E
330
1F
100
AcDbEntity
  8
0
  6
Continuous
 62
     7
370
    25
100
AcDbSpline
210
0.0
220
0.0
230
1.0
 70
     8
 71
     3
 72
     8
 73
     4
 74
     0
 42
0.00000001
 43
0.00000001
 40
0.0
 40
0.0
 40
0.0
 40
0.0
 40
1.0
 40
1.0
 40
1.0
 40
1.0
 10
1498.349603133768
 20
910.2583520752072
 30
0.0
 10
1498.290329478114
 20
910.2241341221481
 30
0.0
 10
1498.226867935704
 20
910.1927363564996
 30
0.0
 10
1498.159239573725
 20
910.1641445912933
 30
0.0
  0
ARC
  5
10F
330
1F
100
AcDbEntity
  8
0
  6
Continuous
 62
     7
370
    25
100
AcDbCircle
 10
1516.2736074202
 20
918.6804562418
 30
0.0
 40
11.68565115161083
100
AcDbArc
 50
167.4422564183
 51
183.9872368449
  0
LINE
  5
110
330
1F
100
AcDbEntity
  8
0
  6
Continuous
 62
     7
370
    25
100
AcDbLine
 10
1498.9594521762
 20
916.2342527838
 30
0.0
 11
1497.7220153092
 21
915.5198956859
 31
0.0
  0
LINE
  5
111
330
1F
100
AcDbEntity
  8
0
  6
Continuous
 62
     7
370
    25
100
AcDbLine
 10
1500.2604469056
 20
920.3824493844
 30
0.0
 11
1499.0230100385
 21
919.6680922865
 31
0.0
  0
LINE
  5
112
330
1F
100
AcDbEntity
  8
0
  6
Continuous
 62
     7
370
    25
100
AcDbLine
 10
1499.5870400008
 20
910.9727091731
 30
0.0
 11
1498.3496031338
 21
910.2583520752
 31
0.0
  0
LINE
  5
113
330
1F
100
AcDbEntity
  8
0
  6
Continuous
 62
     7
370
    25
100
AcDbLine
 10
1516.0364572287
 20
908.0092546317
 30
0.0
 11
1498.1592395737
 21
918.3295527102
 31
0.0
  0
LINE
  5
114
330
1F
100
AcDbEntity
  8
0
  6
Continuous
 62
     7
370
    25
100
AcDbLine
 10
1515.2447071496
 20
910.0994038471
 30
0.0
 11
1498.8315810152
 21
919.5744998814
 31
0.0
  0
LINE
  5
115
330
1F
100
AcDbEntity
  8
0
  6
Continuous
 62
     7
370
    25
100
AcDbLine
 10
1514.1015312767
 20
912.392161455
 30
0.0
 11
1500.2604469056
 21
920.3824493844
 31
0.0
  0
LWPOLYLINE
  5
116
330
1F
100
AcDbEntity
  8
0
  6
Continuous
 62
     7
370
    25
100
AcDbPolyline
 90
       17
 70
   128
 43
0.0
 10
1536.9617292191
 20
854.9221995475
 10
1533.2413644234
 20
858.6386468075
 10
1529.4616604551
 20
862.1871669108
 10
1525.6308521296
 20
865.5600287208
 10
1521.7572856028
 20
868.7498838063
 10
1517.849400188
 20
871.7497824518
 10
1513.9157099684
 20
874.5531887985
 10
1509.9647852483
 20
877.153995084
 10
1506.0052338806
 20
879.5465349492
 10
1502.0456825128
 20
881.7255957839
 10
1498.0947577927
 20
883.686430083
 10
1494.1610675731
 20
885.4247657902
 10
1490.2531821583
 20
886.9368156051
 10
1486.3796156315
 20
888.2192852353
 10
1482.548807306
 20
889.2693805727
 10
1478.7691033377
 20
890.0848137818
 10
1475.048738542
 20
890.6638082838
  0
LWPOLYLINE
  5
117
330
1F
100
AcDbEntity
  8
0
  6
Continuous
 62
     7
370
    25
100
AcDbPolyline
 90
       17
 70
   128
 43
0.0
 10
1536.9617292191
 20
783.4273630973
 10
1538.3202125236
 20
786.9392673274
 10
1539.5036097576
 20
790.620769281
 10
1540.5093426615
 20
794.4638480946
 10
1541.335220052
 20
798.4601308787
 10
1541.9794425955
 20
802.6009109591
 10
1542.4406067289
 20
806.8771668463
 10
1542.7177077168
 20
811.2795818906
 10
1542.8101418413
 20
815.7985645804
 10
1542.7177077168
 20
820.4242694387
 10
1542.4406067289
 20
825.1466184737
 10
1541.9794425955
 20
829.9553231358
 10
1541.335220052
 20
834.8399067326
 10
1540.5093426615
 20
839.7897272551
 10
1539.5036097576
 20
844.794000563
 10
1538.3202125236
 20
849.8418238799
 10
1536.9617292191
 20
854.9221995475
  0
LWPOLYLINE
  5
118
330
1F
100
AcDbEntity
  8
0
  6
Continuous
 62
     7
370
    25
100
AcDbPolyline
 90
       17
 70
   128
 43
0.0
 10
1475.048738542
 20
819.1689718337
 10
1478.7691033377
 20
815.4525245737
 10
1482.548807306
 20
811.9040044704
 10
1486.3796156315
 20
808.5311426604
 10
1490.2531821583
 20
805.3412875749
 10
1494.1610675731
 20
802.3413889293
 10
1498.0947577927
 20
799.5379825827
 10
1502.0456825128
 20
796.9371762972
 10
1506.0052338806
 20
794.5446364319
 10
1509.9647852483
 20
792.3655755972
 10
1513.9157099684
 20
790.4047412981
 10
1517.849400188
 20
788.666405591
 10
1521.7572856028
 20
787.1543557761
 10
1525.6308521296
 20
785.8718861459
 10
1529.4616604551
 20
784.8217908085
 10
1533.2413644234
 20
784.0063575994
 10
1536.9617292191
 20
783.4273630973
  0
LWPOLYLINE
  5
119
330
1F
100
AcDbEntity
  8
0
  6
Continuous
 62
     7
370
    25
100
AcDbPolyline
 90
       17
 70
   128
 43
0.0
 10
1475.048738542
 20
890.6638082838
 10
1473.6902552375
 20
887.1519040538
 10
1472.5068580035
 20
883.4704021002
 10
1471.5011250996
 20
879.6273232866
 10
1470.6752477091
 20
875.6310405025
 10
1470.0310251656
 20
871.4902604221
 10
1469.5698610322
 20
867.2140045349
 10
1469.2927600443
 20
862.8115894906
 10
1469.2003259198
 20
858.2926068008
 10
1469.2927600443
 20
853.6669019425
 10
1469.5698610322
 20
848.9445529074
 10
1470.0310251656
 20
844.1358482454
 10
1470.6752477091
 20
839.2512646486
 10
1471.5011250996
 20
834.3014441261
 10
1472.5068580035
 20
829.2971708182
 10
1473.6902552375
 20
824.2493475013
 10
1475.048738542
 20
819.1689718337
  0
LWPOLYLINE
  5
11A
330
1F
100
AcDbEntity
  8
0
  6
Continuous
 62
     7
370
    25
100
AcDbPolyline
 90
       91
 70
   128
 43
0.0
 10
1540.7241768368
 20
817.0027665453
 10
1540.6396032367
 20
819.8482771238
 10
1540.3862944706
 20
822.7775712609
 10
1539.9654846332
 20
825.77637773
 10
1539.3792238679
 20
828.8300866476
 10
1538.630368378
 20
831.9238206507
 10
1537.7225665124
 20
835.0425073783
 10
1536.6602409904
 20
838.170952902
 10
1535.4485673552
 20
841.2939157498
 10
1534.0934487589
 20
844.3961811606
 10
1532.6014872032
 20
847.4626352091
 10
1530.9799513747
 20
850.4783384395
 10
1529.236741233
 20
853.4285986488
 10
1527.3803495227
 20
856.2990424657
 10
1525.4198203977
 20
859.0756853766
 10
1523.3647053587
 20
861.7449998563
 10
1521.2250167196
 20
864.2939812729
 10
1519.0111788284
 20
866.7102112453
 10
1516.7339772808
 20
868.9819181438
 10
1514.4045063737
 20
871.0980344409
 10
1512.0341150554
 20
873.0482506305
 10
1509.634351634
 20
874.8230654556
 10
1507.2169075158
 20
876.4138321966
 10
1504.7935602453
 20
877.812800798
 10
1502.3761161271
 20
879.0131556252
 10
1499.9763527057
 20
880.0090486703
 10
1497.6059613874
 20
880.7956280424
 10
1495.2764904803
 20
881.3690616059
 10
1492.9992889327
 20
881.7265556502
 10
1490.7854510415
 20
881.8663685001
 10
1488.6457624024
 20
881.7878190015
 10
1486.5906473634
 20
881.4912898397
 10
1484.6301182384
 20
880.978225675
 10
1482.7737265281
 20
880.2511261044
 10
1481.0305163864
 20
879.3135334838
 10
1479.4089805579
 20
878.1700156704
 10
1477.9170190022
 20
876.8261437679
 10
1476.5619004059
 20
875.2884649852
 10
1475.3502267707
 20
873.5644707388
 10
1474.2879012487
 20
871.6625601552
 10
1473.3800993831
 20
869.5919991518
 10
1472.6312438932
 20
867.3628752935
 10
1472.0449831279
 20
864.9860486478
 10
1471.6241732905
 20
862.4730988751
 10
1471.3708645244
 20
859.8362688141
 10
1471.2862909243
 20
857.0884048358
 10
1471.3708645244
 20
854.2428942574
 10
1471.6241732905
 20
851.3136001203
 10
1472.0449831279
 20
848.3147936512
 10
1472.6312438932
 20
845.2610847336
 10
1473.3800993831
 20
842.1673507305
 10
1474.2879012487
 20
839.0486640029
 10
1475.3502267707
 20
835.9202184792
 10
1476.5619004059
 20
832.7972556314
 10
1477.9170190022
 20
829.6949902206
 10
1479.4089805579
 20
826.6285361721
 10
1481.0305163864
 20
823.6128329417
 10
1482.7737265281
 20
820.6625727324
 10
1484.6301182384
 20
817.7921289155
 10
1486.5906473634
 20
815.0154860046
 10
1488.6457624024
 20
812.3461715249
 10
1490.7854510415
 20
809.7971901083
 10
1492.9992889327
 20
807.3809601359
 10
1495.2764904803
 20
805.1092532374
 10
1497.6059613874
 20
802.9931369403
 10
1499.9763527057
 20
801.0429207507
 10
1502.3761161271
 20
799.2681059256
 10
1504.7935602453
 20
797.6773391846
 10
1507.2169075158
 20
796.2783705832
 10
1509.634351634
 20
795.078015756
 10
1512.0341150554
 20
794.0821227109
 10
1514.4045063737
 20
793.2955433388
 10
1516.7339772808
 20
792.7221097753
 10
1519.0111788284
 20
792.364615731
 10
1521.2250167196
 20
792.2248028811
 10
1523.3647053587
 20
792.3033523797
 10
1525.4198203977
 20
792.5998815414
 10
1527.3803495227
 20
793.1129457062
 10
1529.236741233
 20
793.8400452768
 10
1530.9799513747
 20
794.7776378974
 10
1532.6014872032
 20
795.9211557108
 10
1534.0934487589
 20
797.2650276132
 10
1535.4485673552
 20
798.8027063959
 10
1536.6602409904
 20
800.5267006424
 10
1537.7225665124
 20
802.4286112259
 10
1538.630368378
 20
804.4991722294
 10
1539.3792238679
 20
806.7282960877
 10
1539.9654846332
 20
809.1051227334
 10
1540.3862944706
 20
811.6180725061
 10
1540.6396032367
 20
814.2549025671
 10
1540.7241768368
 20
817.0027665453
  0
LWPOLYLINE
  5
11B
330
1F
100
AcDbEntity
  8
0
  6
Continuous
 62
     7
370
    25
100
AcDbPolyline
 90
       20
 70
   128
 43
0.0
 10
1479.2023513397
 20
885.429237853
 10
1479.1104001497
 20
886.1186330287
 10
1478.844510918
 20
886.8394861243
 10
1478.4334968686
 20
887.5136815215
 10
1477.9218977512
 20
888.068159688
 10
1477.3651532684
 20
888.4428343106
 10
1476.8235953238
 20
888.5971035805
 10
1476.3559101239
 20
888.5142500285
 10
1476.0127786168
 20
888.2032521224
 10
1475.8313844256
 20
887.6978113112
 10
1475.8313844256
 20
887.0526999494
 10
1476.0127786168
 20
886.337825863
 10
1476.3559101239
 20
885.6306567516
 10
1476.8235953238
 20
885.0078253614
 10
1477.3651532684
 20
884.5368251377
 10
1477.9218977512
 20
884.268696263
 10
1478.4334968686
 20
884.2324946615
 10
1478.844510918
 20
884.4321433383
 10
1479.1104001497
 20
884.8460072614
 10
1479.2023513397
 20
885.429237853
  0
LWPOLYLINE
  5
11C
330
1F
100
AcDbEntity
  8
0
  6
Continuous
 62
     7
370
    25
100
AcDbPolyline
 90
       20
 70
   128
 43
0.0
 10
1536.2022289711
 20
852.523908906
 10
1536.1102777812
 20
853.2133040817
 10
1535.8443885495
 20
853.9341571773
 10
1535.4333745
 20
854.6083525745
 10
1534.9217753826
 20
855.162830741
 10
1534.3650308999
 20
855.5375053636
 10
1533.8234729553
 20
855.6917746335
 10
1533.3557877553
 20
855.6089210814
 10
1533.0126562482
 20
855.2979231754
 10
1532.8312620571
 20
854.7924823642
 10
1532.8312620571
 20
854.1473710024
 10
1533.0126562482
 20
853.4324969159
 10
1533.3557877553
 20
852.7253278046
 10
1533.8234729553
 20
852.1024964144
 10
1534.3650308999
 20
851.6314961907
 10
1534.9217753826
 20
851.363367316
 10
1535.4333745
 20
851.3271657145
 10
1535.8443885495
 20
851.5268143912
 10
1536.1102777812
 20
851.9406783143
 10
1536.2022289711
 20
852.523908906
  0
LWPOLYLINE
  5
11D
330
1F
100
AcDbEntity
  8
0
  6
Continuous
 62
     7
370
    25
100
AcDbPolyline
 90
       20
 70
   128
 43
0.0
 10
1536.2022289711
 20
786.7025540598
 10
1536.1102777812
 20
787.3919492356
 10
1535.8443885495
 20
788.1128023312
 10
1535.4333745
 20
788.7869977284
 10
1534.9217753826
 20
789.3414758948
 10
1534.3650308999
 20
789.7161505175
 10
1533.8234729553
 20
789.8704197874
 10
1533.3557877553
 20
789.7875662353
 10
1533.0126562482
 20
789.4765683293
 10
1532.8312620571
 20
788.9711275181
 10
1532.8312620571
 20
788.3260161563
 10
1533.0126562482
 20
787.6111420698
 10
1533.3557877553
 20
786.9039729585
 10
1533.8234729553
 20
786.2811415683
 10
1534.3650308999
 20
785.8101413446
 10
1534.9217753826
 20
785.5420124699
 10
1535.4333745
 20
785.5058108684
 10
1535.8443885495
 20
785.7054595451
 10
1536.1102777812
 20
786.1193234682
 10
1536.2022289711
 20
786.7025540598
  0
LWPOLYLINE
  5
11E
330
1F
100
AcDbEntity
  8
0
  6
Continuous
 62
     7
370
    25
100
AcDbPolyline
 90
       20
 70
   128
 43
0.0
 10
1479.2023513397
 20
819.6078830069
 10
1479.1104001497
 20
820.2972781826
 10
1478.844510918
 20
821.0181312782
 10
1478.4334968686
 20
821.6923266754
 10
1477.9218977512
 20
822.2468048419
 10
1477.3651532684
 20
822.6214794645
 10
1476.8235953238
 20
822.7757487344
 10
1476.3559101239
 20
822.6928951823
 10
1476.0127786168
 20
822.3818972763
 10
1475.8313844256
 20
821.8764564651
 10
1475.8313844256
 20
821.2313451033
 10
1476.0127786168
 20
820.5164710168
 10
1476.3559101239
 20
819.8093019055
 10
1476.8235953238
 20
819.1864705153
 10
1477.3651532684
 20
818.7154702916
 10
1477.9218977512
 20
818.4473414169
 10
1478.4334968686
 20
818.4111398154
 10
1478.844510918
 20
818.6107884921
 10
1479.1104001497
 20
819.0246524152
 10
1479.2023513397
 20
819.6078830069
  0
LINE
  5
11F
330
1F
100
AcDbEntity
  8
0
  6
Continuous
 62
     7
370
    25
100
AcDbLine
 10
1516.9828809606
 20
902.5636509695
 30
0.0
 11
1497.532514158
 21
913.7921087202
 31
0.0
  0
LINE
  5
120
330
1F
100
AcDbEntity
  8
0
  6
Continuous
 62
     7
370
    25
100
AcDbLine
 10
1516.866734872
 20
904.263782303
 30
0.0
 11
1497.532514158
 21
915.425190344
 31
0.0
  0
LINE
  5
121
330
1F
100
AcDbEntity
  8
0
  6
Continuous
 62
     7
370
    25
100
AcDbLine
 10
1516.5589116388
 20
906.0743010967
 30
0.0
 11
1498.9594521762
 21
916.2342527838
 31
0.0
  0
LINE
  5
122
330
1F
100
AcDbEntity
  8
0
  6
Continuous
 62
     7
370
    25
100
AcDbLine
 10
1631.5166875412
 20
828.4946247599
 30
0.0
 11
1626.8603265955
 21
825.7127090278
 31
0.0
  0
LINE
  5
123
330
1F
100
AcDbEntity
  8
0
  6
Continuous
 62
     7
370
    25
100
AcDbLine
 10
1631.5166875412
 20
1012.5610972468
 30
0.0
 11
1631.5166875412
 21
828.4946247599
 31
0.0
  0
LINE
  5
124
330
1F
100
AcDbEntity
  8
0
  6
Continuous
 62
     7
370
    25
100
AcDbLine
 10
1633.6719490102
 20
1016.2510562686
 30
0.0
 11
1633.6719490102
 21
827.2930776629
 31
0.0
  0
LINE
  5
125
330
1F
100
AcDbEntity
  8
0
  6
Continuous
 62
     7
370
    25
100
AcDbLine
 10
1633.6719490102
 20
827.2930776629
 30
0.0
 11
1626.8603265955
 21
823.2235135167
 31
0.0
  0
LINE
  5
126
330
1F
100
AcDbEntity
  8
0
  6
Continuous
 62
     7
370
    25
100
AcDbLine
 10
1574.2497616239
 20
980.6559033777
 30
0.0
 11
1631.5166875412
 21
1012.5610972468
 31
0.0
  0
LWPOLYLINE
  5
127
330
1F
100
AcDbEntity
  8
0
  6
Continuous
 62
     7
370
    25
100
AcDbPolyline
 90
       46
 70
   128
 43
0.0
 10
1482.1745187047
 20
879.9591496274
 10
1480.8231941203
 20
878.9864237822
 10
1479.3312325646
 20
877.6425518798
 10
1477.9761139683
 20
876.1048730971
 10
1476.7644403331
 20
874.3808788506
 10
1475.7021148111
 20
872.4789682671
 10
1474.7943129454
 20
870.4084072636
 10
1474.0454574556
 20
868.1792834053
 10
1473.4591966902
 20
865.8024567596
 10
1473.0383868529
 20
863.2895069869
 10
1472.7850780867
 20
860.6526769259
 10
1472.7005044867
 20
857.9048129477
 10
1472.7850780867
 20
855.0593023692
 10
1473.0383868529
 20
852.1300082322
 10
1473.4591966902
 20
849.131201763
 10
1474.0454574556
 20
846.0774928454
 10
1474.7943129454
 20
842.9837588423
 10
1475.7021148111
 20
839.8650721148
 10
1476.7644403331
 20
836.736626591
 10
1477.9761139683
 20
833.6136637432
 10
1479.3312325646
 20
830.5113983324
 10
1480.8231941203
 20
827.4449442839
 10
1482.4447299488
 20
824.4292410535
 10
1484.1879400905
 20
821.4789808442
 10
1486.0443318007
 20
818.6085370273
 10
1488.0048609258
 20
815.8318941164
 10
1490.0599759648
 20
813.1625796367
 10
1492.1996646039
 20
810.6135982201
 10
1494.4135024951
 20
808.1973682477
 10
1496.6907040427
 20
805.9256613492
 10
1499.0201749497
 20
803.8095450522
 10
1501.390566268
 20
801.8593288625
 10
1503.7903296894
 20
800.0845140374
 10
1506.2077738077
 20
798.4937472964
 10
1508.6311210781
 20
797.094778695
 10
1511.0485651964
 20
795.8944238678
 10
1513.4483286178
 20
794.8985308227
 10
1515.8187199361
 20
794.1119514506
 10
1518.1481908431
 20
793.5385178871
 10
1520.4253923908
 20
793.1810238428
 10
1522.639230282
 20
793.0412109929
 10
1524.7789189211
 20
793.1197604915
 10
1526.8340339601
 20
793.4162896533
 10
1528.7945630851
 20
793.929353818
 10
1530.6509547954
 20
794.6564533886
 10
1531.2501626188
 20
794.9484298656
  0
LWPOLYLINE
  5
128
330
1F
100
AcDbEntity
  8
0
  6
Continuous
 62
     7
370
    25
100
AcDbPolyline
 90
       36
 70
   128
 43
0.0
 10
1539.1685419182
 20
818.5367133822
 10
1539.0838443402
 20
821.2618122953
 10
1538.8302035044
 20
824.0701613686
 10
1538.4089726945
 20
826.9467768447
 10
1537.822399359
 20
829.8763107356
 10
1537.0736131205
 20
832.8431327102
 10
1536.1666090776
 20
835.8314134898
 10
1535.1062264892
 20
838.8252093035
 10
1533.8981229553
 20
841.8085469551
 10
1532.5487442309
 20
844.7655090476
 10
1531.0652898354
 20
847.6803189087
 10
1529.4556746398
 20
850.5374247668
 10
1527.7284866377
 20
853.3215827259
 10
1525.8929411243
 20
856.0179380985
 10
1523.9588315291
 20
858.6121046623
 10
1521.9364771636
 20
861.090241416
 10
1519.8366681635
 20
863.439126428
 10
1517.6706079182
 20
865.6462273804
 10
1515.4498532964
 20
867.6997684347
 10
1513.1862529849
 20
869.5887930607
 10
1510.8918842706
 20
871.3032224949
 10
1508.5789886034
 20
872.8339095143
 10
1506.2599062824
 20
874.1726872416
 10
1503.9470106153
 20
875.3124127181
 10
1501.652641901
 20
876.2470050154
 10
1499.3890415894
 20
876.9714776792
 10
1497.1682869676
 20
877.4819653344
 10
1495.0022267224
 20
877.7757443085
 10
1492.9024177222
 20
877.8512471635
 10
1490.8800633568
 20
877.708071059
 10
1488.9459537616
 20
877.3469799016
 10
1487.1104082482
 20
876.7699002687
 10
1485.383220246
 20
875.9799111298
 10
1483.7736050504
 20
874.9812274189
 10
1482.2901506549
 20
873.7791775457
 10
1481.5375285901
 20
873.0405727133
  0
LWPOLYLINE
  5
129
330
1F
100
AcDbEntity
  8
0
  6
Continuous
 62
     7
370
    25
100
AcDbPolyline
 90
       15
 70
   128
 43
0.0
 10
1525.8130092389
 20
796.3634935953
 10
1525.8929411243
 20
796.3831710837
 10
1527.7284866377
 20
796.9602507166
 10
1529.4556746398
 20
797.7502398554
 10
1531.0652898354
 20
798.7489235663
 10
1532.5487442309
 20
799.9509734396
 10
1533.8981229553
 20
801.349976019
 10
1535.1062264892
 20
802.9384670205
 10
1536.1666090776
 20
804.7079711574
 10
1537.0736131205
 20
806.6490473594
 10
1537.822399359
 20
808.7513391451
 10
1538.4089726945
 20
811.0036298784
 10
1538.8302035044
 20
813.3939026135
 10
1539.0838443402
 20
815.9094042112
 10
1539.1685419182
 20
818.5367133822
  0
LINE
  5
12A
330
1F
100
AcDbEntity
  8
0
  6
Continuous
 62
     7
370
    25
100
AcDbLine
 10
1536.9617292191
 20
783.4273630973
 30
0.0
 11
1538.3759427815
 21
784.2437712092
 31
0.0
  0
LINE
  5
12B
330
1F
100
AcDbEntity
  8
0
  6
Continuous
 62
     7
370
    25
100
AcDbLine
 10
1536.9617292191
 20
854.9221995475
 30
0.0
 11
1538.3759427815
 21
855.7386076593
 31
0.0
  0
LINE
  5
12C
330
1F
100
AcDbEntity
  8
0
  6
Continuous
 62
     7
370
    25
100
AcDbLine
 10
1475.048738542
 20
890.6638082838
 30
0.0
 11
1476.4629521044
 21
891.4802163957
 31
0.0
  0
LINE
  5
12D
330
1F
100
AcDbEntity
  8
0
  6
Continuous
 62
     7
370
    25
100
AcDbLine
 10
1516.8656319821
 20
900.9979903401
 30
0.0
 11
1499.5870400008
 21
910.9727091731
 31
0.0
  0
LINE
  5
12E
330
1F
100
AcDbEntity
  8
0
  6
Continuous
 62
     7
370
    25
100
AcDbLine
 10
1516.5488423736
 20
899.5480528648
 30
0.0
 11
1498.1592395737
 21
910.1641445913
 31
0.0
  0
LINE
  5
12F
330
1F
100
AcDbEntity
  8
0
  6
Continuous
 62
     7
370
    25
100
AcDbLine
 10
1516.0073138707
 20
898.2275889915
 30
0.0
 11
1498.8315810152
 21
908.142928515
 31
0.0
  0
LWPOLYLINE
  5
130
330
1F
100
AcDbEntity
  8
0
  6
Continuous
 62
     7
370
    25
100
AcDbPolyline
 90
       83
 70
   128
 43
0.0
 10
1534.3639400016
 20
818.8611266946
 10
1534.2786551278
 20
821.4796695196
 10
1534.0233009919
 20
824.1813135134
 10
1533.5993761136
 20
826.9502043549
 10
1533.0093682525
 20
829.7700930915
 10
1532.2567398095
 20
832.6244314949
 10
1531.3459075075
 20
835.4964691723
 10
1530.2822164725
 20
838.3693518647
 10
1529.0719088667
 20
841.2262203541
 10
1527.7220872562
 20
844.0503094001
 10
1526.240672931
 20
846.8250461253
 10
1524.6363594195
 20
849.5341472713
 10
1522.9185614711
 20
852.1617147553
 10
1521.0973598074
 20
854.6923289666
 10
1519.183441964
 20
857.1111392546
 10
1517.1880395716
 20
859.4039510788
 10
1515.122862445
 20
861.5573093077
 10
1513.0000298648
 20
863.558577179
 10
1510.8319994566
 20
865.3960104571
 10
1508.631494085
 20
867.0588263529
 10
1506.4114271904
 20
868.5372668014
 10
1504.1848270083
 20
869.8226557263
 10
1501.9647601137
 20
870.9074499542
 10
1499.7642547421
 20
871.7852834813
 10
1497.596224334
 20
872.4510048313
 10
1495.4733917537
 20
872.9007072868
 10
1493.4082146272
 20
873.1317518147
 10
1491.4128122348
 20
873.1427825541
 10
1489.4988943913
 20
872.9337347721
 10
1487.6776927276
 20
872.5058352442
 10
1485.9598947793
 20
871.861595055
 10
1484.3555812677
 20
871.0047948621
 10
1482.8741669425
 20
869.9404627098
 10
1481.524345332
 20
868.6748445222
 10
1480.3140377262
 20
867.2153674503
 10
1479.2503466913
 20
865.5705962857
 10
1478.3395143892
 20
863.7501831998
 10
1477.5868859462
 20
861.7648111002
 10
1476.9968780851
 20
859.6261309401
 10
1476.5729532068
 20
857.3466933449
 10
1476.3175990709
 20
854.9398749608
 10
1476.2323141971
 20
852.4197999552
 10
1476.3175990709
 20
849.8012571302
 10
1476.5729532068
 20
847.0996131364
 10
1476.9968780851
 20
844.3307222949
 10
1477.5868859462
 20
841.5108335583
 10
1478.3395143892
 20
838.6564951549
 10
1479.2503466913
 20
835.7844574775
 10
1480.3140377262
 20
832.9115747851
 10
1481.524345332
 20
830.0547062957
 10
1482.8741669425
 20
827.2306172497
 10
1484.3555812677
 20
824.4558805245
 10
1485.9598947793
 20
821.7467793785
 10
1487.6776927276
 20
819.1192118945
 10
1489.4988943913
 20
816.5885976833
 10
1491.4128122348
 20
814.1697873952
 10
1493.4082146272
 20
811.876975571
 10
1495.4733917537
 20
809.7236173421
 10
1497.596224334
 20
807.7223494708
 10
1499.7642547421
 20
805.8849161927
 10
1501.9647601137
 20
804.2221002969
 10
1504.1848270083
 20
802.7436598484
 10
1506.4114271904
 20
801.4582709235
 10
1508.631494085
 20
800.3734766956
 10
1510.8319994566
 20
799.4956431685
 10
1513.0000298648
 20
798.8299218185
 10
1515.122862445
 20
798.380219363
 10
1517.1880395716
 20
798.1491748351
 10
1519.183441964
 20
798.1381440957
 10
1521.0973598074
 20
798.3471918777
 10
1522.9185614711
 20
798.7750914056
 10
1524.6363594195
 20
799.4193315948
 10
1526.240672931
 20
800.2761317877
 10
1527.7220872562
 20
801.34046394
 10
1529.0719088667
 20
802.6060821276
 10
1530.2822164725
 20
804.0655591995
 10
1531.3459075075
 20
805.7103303641
 10
1532.2567398095
 20
807.53074345
 10
1533.0093682525
 20
809.5161155496
 10
1533.5993761136
 20
811.6547957097
 10
1534.0233009919
 20
813.9342333049
 10
1534.2786551278
 20
816.341051689
 10
1534.3639400016
 20
818.8611266946
  0
ARC
  5
131
330
1F
100
AcDbEntity
  8
0
  6
Continuous
 62
     7
370
    25
100
AcDbCircle
 10
1537.656722358
 20
855.3229495339
 30
0.0
 40
3.424465125732138
100
AcDbArc
 50
175.507110068
 51
244.4875133993
  0
LWPOLYLINE
  5
132
330
1F
100
AcDbEntity
  8
0
  6
Continuous
 62
     7
370
    25
100
AcDbPolyline
 90
       83
 70
   128
 43
0.0
 10
1534.3211362716
 20
818.885836762
 10
1534.2359769924
 20
816.3694729415
 10
1533.9809989034
 20
813.9661989552
 10
1533.5576983175
 20
811.6901181707
 10
1532.9685593307
 20
809.554587535
 10
1532.2170392449
 20
807.572139191
 10
1531.3075482789
 20
805.7544069339
 10
1530.2454236871
 20
804.1120579394
 10
1529.0368984391
 20
802.6547301644
 10
1527.6890646416
 20
801.3909757878
 10
1526.2098319192
 20
800.3282110227
 10
1524.6078809978
 20
799.4726725955
 10
1522.8926127623
 20
798.8293811457
 10
1521.0740930888
 20
798.4021117635
 10
1519.1629937738
 20
798.1933718354
 10
1517.170529908
 20
798.2043863304
 10
1515.1083940618
 20
798.4350906109
 10
1512.9886876681
 20
798.8841308127
 10
1510.823850007
 20
799.5488717891
 10
1508.6265852066
 20
800.4254125758
 10
1506.4097876906
 20
801.508609283
 10
1504.1864665082
 20
802.7921052816
 10
1501.9696689921
 20
804.2683685068
 10
1499.7724041918
 20
805.9287356589
 10
1497.6075665306
 20
807.7634630434
 10
1495.487860137
 20
809.7617837503
 10
1493.4257242907
 20
811.9119708391
 10
1491.4332604249
 20
814.2014061571
 10
1489.52216111
 20
816.6166543874
 10
1487.7036414365
 20
819.1435418931
 10
1485.988373201
 20
821.7672398934
 10
1484.3864222795
 20
824.4723514852
 10
1482.9071895571
 20
827.2430019982
 10
1481.5593557596
 20
830.0629321533
 10
1480.3508305116
 20
832.9155934791
 10
1479.2887059199
 20
835.7842454247
 10
1478.3792149538
 20
838.6520535997
 10
1477.627694868
 20
841.5021885655
 10
1477.0385558812
 20
844.3179245968
 10
1476.6152552953
 20
847.0827378349
 10
1476.3602772063
 20
849.7804032563
 10
1476.2751179272
 20
852.3950898878
 10
1476.3602772063
 20
854.9114537083
 10
1476.6152552953
 20
857.3147276946
 10
1477.0385558812
 20
859.5908084791
 10
1477.627694868
 20
861.7263391148
 10
1478.3792149538
 20
863.7087874588
 10
1479.2887059199
 20
865.5265197159
 10
1480.3508305116
 20
867.1688687104
 10
1481.5593557596
 20
868.6261964854
 10
1482.9071895571
 20
869.889950862
 10
1484.3864222795
 20
870.9527156271
 10
1485.988373201
 20
871.8082540543
 10
1487.7036414365
 20
872.4515455041
 10
1489.52216111
 20
872.8788148863
 10
1491.4332604249
 20
873.0875548144
 10
1493.4257242907
 20
873.0765403194
 10
1495.487860137
 20
872.8458360389
 10
1497.6075665306
 20
872.3967958372
 10
1499.7724041918
 20
871.7320548607
 10
1501.9696689921
 20
870.855514074
 10
1504.1864665082
 20
869.7723173668
 10
1506.4097876906
 20
868.4888213682
 10
1508.6265852066
 20
867.012558143
 10
1510.823850007
 20
865.3521909909
 10
1512.9886876681
 20
863.5174636064
 10
1515.1083940618
 20
861.5191428995
 10
1517.170529908
 20
859.3689558107
 10
1519.1629937738
 20
857.0795204927
 10
1521.0740930888
 20
854.6642722624
 10
1522.8926127623
 20
852.1373847567
 10
1524.6078809978
 20
849.5136867564
 10
1526.2098319192
 20
846.8085751646
 10
1527.6890646416
 20
844.0379246516
 10
1529.0368984391
 20
841.2179944965
 10
1530.2454236871
 20
838.3653331707
 10
1531.3075482789
 20
835.4966812251
 10
1532.2170392449
 20
832.6288730501
 10
1532.9685593307
 20
829.7787380843
 10
1533.5576983175
 20
826.963002053
 10
1533.9809989034
 20
824.1981888149
 10
1534.2359769924
 20
821.5005233935
 10
1534.3211362716
 20
818.885836762
  0
LWPOLYLINE
  5
133
330
1F
100
AcDbEntity
  8
0
  6
Continuous
 62
     7
370
    25
100
AcDbPolyline
 90
       45
 70
   128
 43
0.0
 10
1492.0038472045
 20
870.4271029618
 10
1490.7610085284
 20
870.0422846052
 10
1489.1732766702
 20
869.3345640602
 10
1487.703878231
 20
868.4162664222
 10
1486.3623428237
 20
867.2933472039
 10
1485.1573708202
 20
865.9730889673
 10
1484.0967769261
 20
864.4640540935
 10
1483.1874395001
 20
862.776029253
 10
1482.4352559441
 20
860.9199619345
 10
1481.8451044573
 20
858.9078894468
 10
1481.4208123983
 20
856.752860852
 10
1481.1651314642
 20
854.4688523377
 10
1481.0797198437
 20
852.0706765753
 10
1481.1651314642
 20
849.5738866551
 10
1481.4208123983
 20
846.9946752177
 10
1481.8451044573
 20
844.3497694391
 10
1482.4352559441
 20
841.6563225481
 10
1483.1874395001
 20
838.9318025814
 10
1484.0967769261
 20
836.1938790964
 10
1485.1573708202
 20
833.4603085777
 10
1486.3623428237
 20
830.7488192789
 10
1487.703878231
 20
828.0769962486
 10
1489.1732766702
 20
825.4621672845
 10
1490.7610085284
 20
822.9212905558
 10
1492.4567767553
 20
820.4708446231
 10
1494.2495836433
 20
818.1267215686
 10
1496.1278021518
 20
815.9041239297
 10
1498.0792513129
 20
813.8174661051
 10
1500.09127523
 20
811.8802808715
 10
1502.150825156
 20
810.1051316185
 10
1504.2445441193
 20
808.5035308701
 10
1506.3588535489
 20
807.0858656218
 10
1508.4800413369
 20
805.8613299768
 10
1510.5943507666
 20
804.8378655185
 10
1512.6880697298
 20
804.0221098068
 10
1514.7476196558
 20
803.4193533304
 10
1516.759643573
 20
803.0335051964
 10
1518.7110927341
 20
802.8670677781
 10
1520.5893112425
 20
802.9211204859
 10
1522.3821181305
 20
803.1953127672
 10
1524.0778863575
 20
803.68786638
 10
1525.6656182157
 20
804.3955869251
 10
1527.1350166548
 20
805.313884563
 10
1528.4765520621
 20
806.4368037814
 10
1528.8820330005
 20
806.8430504805
  0
ARC
  5
134
330
1F
100
AcDbEntity
  8
0
  6
Continuous
 62
     7
370
    25
100
AcDbCircle
 10
1460.3657553262
 20
804.0756498783
 30
0.0
 40
5.297819835321897
100
AcDbArc
 50
180.9978044329
 51
217.7153990321
  0
LINE
  5
135
330
1F
100
AcDbEntity
  8
0
  6
Continuous
 62
     7
370
    25
100
AcDbLine
 10
1459.403157812
 20
810.0636544428
 30
0.0
 11
1462.1550675054
 21
811.6522980936
 31
0.0
  0
LWPOLYLINE
  5
136
330
1F
100
AcDbEntity
  8
0
  6
Continuous
 62
     7
370
    25
100
AcDbPolyline
 90
       32
 70
   128
 43
0.0
 10
1518.0611339748
 20
857.230651463
 10
1517.5686857114
 20
857.2703325874
 10
1516.4574486576
 20
857.2086146638
 10
1515.4372950033
 20
856.9295540226
 10
1514.5264294146
 20
856.4381305077
 10
1513.7411063094
 20
855.7431135834
 10
1513.0953397973
 20
854.856905843
 10
1512.6006535969
 20
853.7953216848
 10
1512.2658753951
 20
852.5773051031
 10
1512.096979317
 20
851.2245916328
 10
1512.096979317
 20
849.7613204778
 10
1512.2658753951
 20
848.2136037464
 10
1512.6006535969
 20
846.6090604805
 10
1513.0953397973
 20
844.9763237926
 10
1513.7411063094
 20
843.3445299076
 10
1514.5264294146
 20
841.742798226
 10
1515.4372950033
 20
840.1997116876
 10
1516.4574486576
 20
838.7428067083
 10
1517.5686857114
 20
837.398081792
 10
1518.751176113
 20
836.1895335865
 10
1519.9838182933
 20
835.1387286634
 10
1521.2446157234
 20
834.2644186613
 10
1522.5110694433
 20
833.5822056629
 10
1523.7605795562
 20
833.1042637754
 10
1524.9708485247
 20
832.839121883
 10
1526.1202790703
 20
832.7915114491
 10
1527.1883595778
 20
832.9622820831
 10
1528.1560301251
 20
833.3483863789
 10
1529.0060226084
 20
833.9429342961
 10
1529.7231688917
 20
834.7353161133
 10
1530.2946714827
 20
835.7113917579
 10
1530.3730167948
 20
835.8861334211
  0
ELLIPSE
  5
137
330
1F
100
AcDbEntity
  8
0
  6
Continuous
 62
     7
370
    25
100
AcDbEllipse
 10
1618.8603265955
 20
816.636898615
 30
0.0
 11
7.996325639353927
 21
0.3989012877367486
 31
0.0
210
0.0
220
0.0
230
1.0
 40
0.6077648379
 41
6.02533713468984
 42
6.252875894656547
  0
LINE
  5
138
330
1F
100
AcDbEntity
  8
0
  6
Continuous
 62
     7
370
    25
100
AcDbLine
 10
1631.5166875412
 20
828.4946247599
 30
0.0
 11
1626.8603265955
 21
831.1826847169
 31
0.0
  0
LWPOLYLINE
  5
139
330
1F
100
AcDbEntity
  8
0
  6
Continuous
 62
     7
370
    25
100
AcDbPolyline
 90
       17
 70
   128
 43
0.0
 10
1518.1380587082
 20
842.9234745959
 10
1518.1295324891
 20
842.9778946713
 10
1518.1052518713
 20
843.0338739466
 10
1518.0689133588
 20
843.0828900846
 10
1518.0260491607
 20
843.1174808225
 10
1517.9831849626
 20
843.1323800343
 10
1517.9468464501
 20
843.1253194498
 10
1517.9225658323
 20
843.0973739791
 10
1517.9140396132
 20
843.0527980667
 10
1517.9225658323
 20
842.9983779913
 10
1517.9468464501
 20
842.942398716
 10
1517.9831849626
 20
842.8933825781
 10
1518.0260491607
 20
842.8587918401
 10
1518.0689133588
 20
842.8438926284
 10
1518.1052518713
 20
842.8509532128
 10
1518.1295324891
 20
842.8788986836
 10
1518.1380587082
 20
842.9234745959
  0
LWPOLYLINE
  5
13A
330
1F
100
AcDbEntity
  8
0
  6
Continuous
 62
     7
370
    25
100
AcDbPolyline
 90
       11
 70
   128
 43
0.0
 10
1519.1329214592
 20
855.9900652126
 10
1518.3299633444
 20
856.1311491466
 10
1517.2482317014
 20
856.146371405
 10
1516.2504545364
 20
855.9452097231
 10
1515.3560524469
 20
855.5315794841
 10
1514.5824339523
 20
854.9135315303
 10
1513.9446566565
 20
854.1030954619
 10
1513.4551341691
 20
853.1160454953
 10
1513.1233944886
 20
851.9715934353
 10
1512.9558945505
 20
850.6920147393
 10
1512.9349778091
 20
849.9618342419
  0
LWPOLYLINE
  5
13B
330
1F
100
AcDbEntity
  8
0
  6
Continuous
 62
     7
370
    25
100
AcDbPolyline
 90
       11
 70
   128
 43
0.0
 10
1521.5542918446
 20
835.0715713969
 10
1521.8626506502
 20
834.8996245475
 10
1523.0595942751
 20
834.3539173369
 10
1524.2273808158
 20
834.0159915158
 10
1525.3432806356
 20
833.892424426
 10
1526.3855740139
 20
833.9856211604
 10
1527.3339738956
 20
834.2937677504
 10
1528.1700207558
 20
834.8108664733
 10
1528.8774418933
 20
835.5268525906
 10
1529.4424681605
 20
836.4277902469
 10
1529.8356996101
 20
837.4337124213
  0
ARC
  5
13C
330
1F
100
AcDbEntity
  8
0
  6
Continuous
 62
     7
370
    25
100
AcDbCircle
 10
1537.656722358
 20
789.5015946878
 30
0.0
 40
3.42446512573044
100
AcDbArc
 50
175.507110068
 51
244.4875133993
  0
ARC
  5
13D
330
1F
100
AcDbEntity
  8
0
  6
Continuous
 62
     7
370
    25
100
AcDbCircle
 10
1480.6568447265
 20
888.2282784809
 30
0.0
 40
3.424465125731527
100
AcDbArc
 50
175.507110068
 51
244.4875133993
  0
ARC
  5
13E
330
1F
100
AcDbEntity
  8
0
  6
Continuous
 62
     7
370
    25
100
AcDbCircle
 10
1480.6568447265
 20
822.4069236348
 30
0.0
 40
3.42446512573093
100
AcDbArc
 50
175.507110068
 51
244.4875133993
  0
LINE
  5
13F
330
1F
100
AcDbEntity
  8
0
  6
Continuous
 62
     7
370
    25
100
AcDbLine
 10
1536.2241405302
 20
904.7532753765
 30
0.0
 11
1534.1024753844
 21
903.5284641586
 31
0.0
  0
LINE
  5
140
330
1F
100
AcDbEntity
  8
0
  6
Continuous
 62
     7
370
    25
100
AcDbLine
 10
1541.8806499774
 20
876.9916176227
 30
0.0
 11
1544.001970293
 21
878.2162297743
 31
0.0
  0
LWPOLYLINE
  5
141
330
1F
100
AcDbEntity
  8
0
  6
Continuous
 62
     7
370
    25
100
AcDbPolyline
 90
       15
 70
   128
 43
0.0
 10
1499.1275144043
 20
907.9720898059
 10
1499.7424267631
 20
906.5778964475
 10
1500.5962241382
 20
904.9607678023
 10
1501.5697934541
 20
903.4128045038
 10
1502.6464766699
 20
901.9604926334
 10
1503.8078514372
 20
900.6286816497
 10
1505.0340463117
 20
899.440159208
 10
1506.3040807592
 20
898.4152612567
 10
1507.5962241382
 20
897.5715240841
 10
1508.8883675172
 20
896.9233842669
 10
1510.1584019647
 20
896.4819316572
 10
1511.3845968392
 20
896.2547196315
 10
1512.5459716065
 20
896.2456358506
 10
1513.6226548223
 20
896.4548357405
 10
1514.5843491573
 20
896.8719055473
  0
ARC
  5
142
330
1F
100
AcDbEntity
  8
0
  6
Continuous
 62
     7
370
    25
100
AcDbCircle
 10
1503.0504306261
 20
916.9040417034
 30
0.0
 40
4.884679336027209
100
AcDbArc
 50
120.0629593506
 51
145.5378830032
  0
ARC
  5
143
330
1F
100
AcDbEntity
  8
0
  6
Continuous
 62
     7
370
    25
100
AcDbCircle
 10
1507.0530165265
 20
915.0311333365
 30
0.0
 40
9.343793252883636
100
AcDbArc
 50
159.7997783486
 51
177.0015596874
  0
ARC
  5
144
330
1F
100
AcDbEntity
  8
0
  6
Continuous
 62
     7
370
    25
100
AcDbCircle
 10
1515.3413329672
 20
915.0722028644
 30
0.0
 40
17.66046551350578
100
AcDbArc
 50
184.539354533
 51
195.8177185638
  0
LINE
  5
145
330
1F
100
AcDbEntity
  8
0
  6
Continuous
 62
     7
370
    25
100
AcDbLine
 10
647.5112631062
 20
427.1167557334
 30
0.0
 11
647.5112631062
 21
658.0190005174
 31
0.0
  0
LINE
  5
146
330
1F
100
AcDbEntity
  8
0
  6
Continuous
 62
     7
370
    25
100
AcDbLine
 10
487.2432791024
 20
658.0190005174
 30
0.0
 11
487.2432791024
 21
427.1167557334
 31
0.0
  0
LINE
  5
147
330
1F
100
AcDbEntity
  8
0
  6
Continuous
 62
     7
370
    25
100
AcDbLine
 10
586.3772711043
 20
659.9156778322
 30
0.0
 11
586.3772711043
 21
668.2387717888
 31
0.0
  0
LINE
  5
148
330
1F
100
AcDbEntity
  8
0
  6
Continuous
 62
     7
370
    25
100
AcDbLine
 10
548.3772711043
 20
668.2387717888
 30
0.0
 11
548.3772711043
 21
659.9156778322
 31
0.0
  0
LINE
  5
149
330
1F
100
AcDbEntity
  8
0
  6
Continuous
 62
     7
370
    25
100
AcDbLine
 10
548.3772711043
 20
425.2198368549
 30
0.0
 11
548.3772711043
 21
416.896984462
 31
0.0
  0
LINE
  5
14A
330
1F
100
AcDbEntity
  8
0
  6
Continuous
 62
     7
370
    25
100
AcDbLine
 10
586.3772711043
 20
416.896984462
 30
0.0
 11
586.3772711043
 21
425.2198368549
 31
0.0
  0
LINE
  5
14B
330
1F
100
AcDbEntity
  8
0
  6
Continuous
 62
     7
370
    25
100
AcDbLine
 10
586.3743764306
 20
668.2445598137
 30
0.0
 11
584.3746811331
 21
670.2436459382
 31
0.0
  0
LINE
  5
14C
330
1F
100
AcDbEntity
  8
0
  6
Continuous
 62
     7
370
    25
100
AcDbLine
 10
550.3798610756
 20
670.2436459382
 30
0.0
 11
548.3801657781
 21
668.2445598137
 31
0.0
  0
LINE
  5
14D
330
1F
100
AcDbEntity
  8
0
  6
Continuous
 62
     7
370
    25
100
AcDbLine
 10
548.3801657781
 20
416.8911964371
 30
0.0
 11
550.3798610756
 21
414.8921103126
 31
0.0
  0
LINE
  5
14E
330
1F
100
AcDbEntity
  8
0
  6
Continuous
 62
     7
370
    25
100
AcDbLine
 10
584.3746811331
 20
414.8921103126
 30
0.0
 11
586.3743764306
 21
416.8911964371
 31
0.0
  0
LINE
  5
14F
330
1F
100
AcDbEntity
  8
0
  6
Continuous
 62
     7
370
    25
100
AcDbLine
 10
631.3907711043
 20
641.6678781254
 30
0.0
 11
503.3637711043
 21
641.6678781254
 31
0.0
  0
LINE
  5
150
330
1F
100
AcDbEntity
  8
0
  6
Continuous
 62
     7
370
    25
100
AcDbLine
 10
503.3637711043
 20
641.6678781254
 30
0.0
 11
503.3637711043
 21
443.4678781254
 31
0.0
  0
LINE
  5
151
330
1F
100
AcDbEntity
  8
0
  6
Continuous
 62
     7
370
    25
100
AcDbLine
 10
631.3907711043
 20
443.4678781254
 30
0.0
 11
631.3907711043
 21
641.6678781254
 31
0.0
  0
LINE
  5
152
330
1F
100
AcDbEntity
  8
0
  6
Continuous
 62
     7
370
    25
100
AcDbLine
 10
495.9826206477
 20
658.0678781254
 30
0.0
 11
495.9826206477
 21
427.0678781254
 31
0.0
  0
LINE
  5
153
330
1F
100
AcDbEntity
  8
0
  6
Continuous
 62
     7
370
    25
100
AcDbLine
 10
638.7719215609
 20
658.0678781254
 30
0.0
 11
638.7719215609
 21
427.0678781254
 31
0.0
  0
LINE
  5
154
330
1F
100
AcDbEntity
  8
0
  6
Continuous
 62
     7
370
    25
100
AcDbLine
 10
495.9826206477
 20
427.0678781254
 30
0.0
 11
638.7719215609
 21
427.0678781254
 31
0.0
  0
LINE
  5
155
330
1F
100
AcDbEntity
  8
0
  6
Continuous
 62
     7
370
    25
100
AcDbLine
 10
495.9826206477
 20
658.0678781254
 30
0.0
 11
638.7719215609
 21
658.0678781254
 31
0.0
  0
LINE
  5
156
330
1F
100
AcDbEntity
  8
0
  6
Continuous
 62
     7
370
    25
100
AcDbLine
 10
503.3637711043
 20
443.4678781254
 30
0.0
 11
631.3907711043
 21
443.4678781254
 31
0.0
  0
CIRCLE
  5
157
330
1F
100
AcDbEntity
  8
0
  6
Continuous
 62
     7
370
    25
100
AcDbCircle
 10
567.3772711043
 20
506.3469736767
 30
0.0
 40
37.25
  0
CIRCLE
  5
158
330
1F
100
AcDbEntity
  8
0
  6
Continuous
 62
     7
370
    25
100
AcDbCircle
 10
567.3772711043
 20
506.3469736767
 30
0.0
 40
41.04473319220199
  0
CIRCLE
  5
159
330
1F
100
AcDbEntity
  8
0
  6
Continuous
 62
     7
370
    25
100
AcDbCircle
 10
567.3772711043
 20
506.3469736767
 30
0.0
 40
41.10526680779788
  0
CIRCLE
  5
15A
330
1F
100
AcDbEntity
  8
0
  6
Continuous
 62
     7
370
    25
100
AcDbCircle
 10
567.3772711043
 20
506.3469736767
 30
0.0
 40
44.90000000000009
  0
ARC
  5
15B
330
1F
100
AcDbEntity
  8
0
  6
Continuous
 62
     7
370
    25
100
AcDbCircle
 10
499.4272711043
 20
507.5678781254
 30
0.0
 40
120.0
100
AcDbArc
 50
338.6031376962
 51
21.3968623038
  0
CIRCLE
  5
15C
330
1F
100
AcDbEntity
  8
0
  6
Continuous
 62
     7
370
    25
100
AcDbCircle
 10
527.0722711043
 20
547.8728781254
 30
0.0
 40
2.400000000000091
  0
CIRCLE
  5
15D
330
1F
100
AcDbEntity
  8
0
  6
Continuous
 62
     7
370
    25
100
AcDbCircle
 10
607.6822711043
 20
547.8728781254
 30
0.0
 40
2.399999999999977
  0
CIRCLE
  5
15E
330
1F
100
AcDbEntity
  8
0
  6
Continuous
 62
     7
370
    25
100
AcDbCircle
 10
607.6822711043
 20
467.2628781254
 30
0.0
 40
2.399999999999977
  0
ARC
  5
15F
330
1F
100
AcDbEntity
  8
0
  6
Continuous
 62
     7
370
    25
100
AcDbCircle
 10
567.3772711043
 20
575.5178781254
 30
0.0
 40
120.0
100
AcDbArc
 50
248.6031376962
 51
291.3968623038
  0
ARC
  5
160
330
1F
100
AcDbEntity
  8
0
  6
Continuous
 62
     7
370
    25
100
AcDbCircle
 10
635.3272711043
 20
507.5678781254
 30
0.0
 40
119.9999999999999
100
AcDbArc
 50
158.6031376962
 51
201.3968623038
  0
CIRCLE
  5
161
330
1F
100
AcDbEntity
  8
0
  6
Continuous
 62
     7
370
    25
100
AcDbCircle
 10
567.3772711043
 20
507.5678781254
 30
0.0
 40
49.10000000000002
  0
ARC
  5
162
330
1F
100
AcDbEntity
  8
0
  6
Continuous
 62
     7
370
    25
100
AcDbCircle
 10
567.3772711043
 20
439.6178781254
 30
0.0
 40
120.0
100
AcDbArc
 50
68.6031376962
 51
111.3968623038
  0
CIRCLE
  5
163
330
1F
100
AcDbEntity
  8
0
  6
Continuous
 62
     7
370
    25
100
AcDbCircle
 10
527.0722711043
 20
467.2628781254
 30
0.0
 40
2.400000000000091
  0
CIRCLE
  5
164
330
1F
100
AcDbEntity
  8
0
  6
Continuous
 62
     7
370
    25
100
AcDbCircle
 10
567.3772711043
 20
594.5678781254
 30
0.0
 40
15.76794919243105
  0
CIRCLE
  5
165
330
1F
100
AcDbEntity
  8
0
  6
Continuous
 62
     7
370
    25
100
AcDbCircle
 10
567.3772711043
 20
594.5678781254
 30
0.0
 40
15.75
  0
CIRCLE
  5
166
330
1F
100
AcDbEntity
  8
0
  6
Continuous
 62
     7
370
    25
100
AcDbCircle
 10
567.3772711043
 20
594.5678781254
 30
0.0
 40
17.5
  0
ARC
  5
167
330
1F
100
AcDbEntity
  8
0
  6
Continuous
 62
     7
370
    25
100
AcDbCircle
 10
567.3772711043
 20
594.5678781254
 30
0.0
 40
14.01794919243117
100
AcDbArc
 50
200.8967836211
 51
209.9576523003
  0
ARC
  5
168
330
1F
100
AcDbEntity
  8
0
  6
Continuous
 62
     7
370
    25
100
AcDbCircle
 10
567.3772711043
 20
594.5678781254
 30
0.0
 40
14.00000000000007
100
AcDbArc
 50
210.0
 51
330.0
  0
ARC
  5
169
330
1F
100
AcDbEntity
  8
0
  6
Continuous
 62
     7
370
    25
100
AcDbCircle
 10
567.3772711043
 20
594.5678781254
 30
0.0
 40
14.01794919243117
100
AcDbArc
 50
330.0423476997
 51
339.1032163789
  0
ARC
  5
16A
330
1F
100
AcDbEntity
  8
0
  6
Continuous
 62
     7
370
    25
100
AcDbCircle
 10
567.3772711043
 20
594.5678781254
 30
0.0
 40
14.00000000000006
100
AcDbArc
 50
339.0751675724
 51
355.9039562418
  0
ARC
  5
16B
330
1F
100
AcDbEntity
  8
0
  6
Continuous
 62
     7
370
    25
100
AcDbCircle
 10
567.3772711043
 20
594.5678781254
 30
0.0
 40
14.01794919243113
100
AcDbArc
 50
355.9092099305
 51
4.0907900695
  0
ARC
  5
16C
330
1F
100
AcDbEntity
  8
0
  6
Continuous
 62
     7
370
    25
100
AcDbCircle
 10
567.3772711043
 20
594.5678781254
 30
0.0
 40
14.00000000000006
100
AcDbArc
 50
4.0960437582
 51
20.9248324276
  0
ARC
  5
16D
330
1F
100
AcDbEntity
  8
0
  6
Continuous
 62
     7
370
    25
100
AcDbCircle
 10
567.3772711043
 20
594.5678781254
 30
0.0
 40
14.01794919243117
100
AcDbArc
 50
20.8967836211
 51
29.9576523003
  0
ARC
  5
16E
330
1F
100
AcDbEntity
  8
0
  6
Continuous
 62
     7
370
    25
100
AcDbCircle
 10
567.3772711043
 20
594.5678781254
 30
0.0
 40
13.99999999999997
100
AcDbArc
 50
30.0
 51
150.0
  0
ARC
  5
16F
330
1F
100
AcDbEntity
  8
0
  6
Continuous
 62
     7
370
    25
100
AcDbCircle
 10
567.3772711043
 20
594.5678781254
 30
0.0
 40
14.01794919243117
100
AcDbArc
 50
150.0423476997
 51
159.1032163789
  0
ARC
  5
170
330
1F
100
AcDbEntity
  8
0
  6
Continuous
 62
     7
370
    25
100
AcDbCircle
 10
567.3772711043
 20
594.5678781254
 30
0.0
 40
14.00000000000006
100
AcDbArc
 50
159.0751675724
 51
175.9039562418
  0
ARC
  5
171
330
1F
100
AcDbEntity
  8
0
  6
Continuous
 62
     7
370
    25
100
AcDbCircle
 10
567.3772711043
 20
594.5678781254
 30
0.0
 40
14.01794919243113
100
AcDbArc
 50
175.9092099305
 51
184.0907900695
  0
ARC
  5
172
330
1F
100
AcDbEntity
  8
0
  6
Continuous
 62
     7
370
    25
100
AcDbCircle
 10
567.3772711043
 20
594.5678781254
 30
0.0
 40
14.00000000000006
100
AcDbArc
 50
184.0960437582
 51
200.9248324276
  0
ELLIPSE
  5
173
330
1F
100
AcDbEntity
  8
0
  6
Continuous
 62
     7
370
    25
100
AcDbEllipse
 10
633.5112631062
 20
427.1167557334
 30
0.0
 11
13.99999999999989
 21
0.0
 31
0.0
210
0.0
220
0.0
230
1.0
 40
0.0544354839
 41
6.219005559107914
 42
6.283185307179586
  0
ELLIPSE
  5
174
330
1F
100
AcDbEntity
  8
0
  6
Continuous
 62
     7
370
    25
100
AcDbEllipse
 10
633.5112631062
 20
658.0190005174
 30
0.0
 11
13.99999999999989
 21
0.0
 31
0.0
210
0.0
220
0.0
230
1.0
 40
0.0544354839
 41
0.0
 42
0.0641797480719306
  0
LINE
  5
175
330
1F
100
AcDbEntity
  8
0
  6
Continuous
 62
     7
370
    25
100
AcDbLine
 10
638.7719215609
 20
427.0678781254
 30
0.0
 11
647.4824397216
 21
427.0678781254
 31
0.0
  0
LINE
  5
176
330
1F
100
AcDbEntity
  8
0
  6
Continuous
 62
     7
370
    25
100
AcDbLine
 10
638.7719215609
 20
658.0678781254
 30
0.0
 11
647.4824397216
 21
658.0678781254
 31
0.0
  0
ELLIPSE
  5
177
330
1F
100
AcDbEntity
  8
0
  6
Continuous
 62
     7
370
    25
100
AcDbEllipse
 10
501.2432791024
 20
427.1167557334
 30
0.0
 11
13.99999999999983
 21
0.0
 31
0.0
210
0.0
220
0.0
230
1.0
 40
0.0544354839
 41
3.141592653589791
 42
3.205772401661978
  0
ELLIPSE
  5
178
330
1F
100
AcDbEntity
  8
0
  6
Continuous
 62
     7
370
    25
100
AcDbEllipse
 10
501.2432791024
 20
658.0190005174
 30
0.0
 11
13.99999999999983
 21
0.0
 31
0.0
210
0.0
220
0.0
230
1.0
 40
0.0544354839
 41
3.077412905517864
 42
3.141592653589791
  0
LINE
  5
179
330
1F
100
AcDbEntity
  8
0
  6
Continuous
 62
     7
370
    25
100
AcDbLine
 10
487.2721024871
 20
427.0678781254
 30
0.0
 11
495.9826206477
 21
427.0678781254
 31
0.0
  0
LINE
  5
17A
330
1F
100
AcDbEntity
  8
0
  6
Continuous
 62
     7
370
    25
100
AcDbLine
 10
487.2721024871
 20
658.0678781254
 30
0.0
 11
495.9826206477
 21
658.0678781254
 31
0.0
  0
LINE
  5
17B
330
1F
100
AcDbEntity
  8
0
  6
Continuous
 62
     7
370
    25
100
AcDbLine
 10
579.5223482783
 20
587.5678781254
 30
0.0
 11
555.2321939304
 21
587.5678781254
 31
0.0
  0
LINE
  5
17C
330
1F
100
AcDbEntity
  8
0
  6
Continuous
 62
     7
370
    25
100
AcDbLine
 10
580.4731826633
 20
589.5678781254
 30
0.0
 11
554.2813595453
 21
589.5678781254
 31
0.0
  0
LINE
  5
17D
330
1F
100
AcDbEntity
  8
0
  6
Continuous
 62
     7
370
    25
100
AcDbLine
 10
579.5223482783
 20
601.5678781254
 30
0.0
 11
555.2321939304
 21
601.5678781254
 31
0.0
  0
LINE
  5
17E
330
1F
100
AcDbEntity
  8
0
  6
Continuous
 62
     7
370
    25
100
AcDbLine
 10
580.4731826633
 20
599.5678781254
 30
0.0
 11
554.2813595453
 21
599.5678781254
 31
0.0
  0
CIRCLE
  5
17F
330
1F
100
AcDbEntity
  8
0
  6
Continuous
 62
     7
370
    25
100
AcDbCircle
 10
567.3772711043
 20
506.3469736767
 30
0.0
 40
13.41492814811556
  0
ARC
  5
180
330
1F
100
AcDbEntity
  8
0
  6
Continuous
 62
     7
370
    25
100
AcDbCircle
 10
616.1127711043
 20
582.8528781254
 30
0.0
 40
3.0
100
AcDbArc
 50
270.0
 51
0.0
  0
LINE
  5
181
330
1F
100
AcDbEntity
  8
0
  6
Continuous
 62
     7
370
    25
100
AcDbLine
 10
616.1127711043
 20
609.8528781254
 30
0.0
 11
608.1127711043
 21
609.8528781254
 31
0.0
  0
ARC
  5
182
330
1F
100
AcDbEntity
  8
0
  6
Continuous
 62
     7
370
    25
100
AcDbCircle
 10
608.1127711043
 20
606.8528781254
 30
0.0
 40
3.0
100
AcDbArc
 50
90.0
 51
180.0
  0
LINE
  5
183
330
1F
100
AcDbEntity
  8
0
  6
Continuous
 62
     7
370
    25
100
AcDbLine
 10
605.1127711043
 20
606.8528781254
 30
0.0
 11
605.1127711043
 21
582.8528781254
 31
0.0
  0
LINE
  5
184
330
1F
100
AcDbEntity
  8
0
  6
Continuous
 62
     7
370
    25
100
AcDbLine
 10
619.1127711043
 20
582.8528781254
 30
0.0
 11
619.1127711043
 21
606.8528781254
 31
0.0
  0
ARC
  5
185
330
1F
100
AcDbEntity
  8
0
  6
Continuous
 62
     7
370
    25
100
AcDbCircle
 10
608.1127711043
 20
582.8528781254
 30
0.0
 40
3.0
100
AcDbArc
 50
180.0
 51
270.0
  0
ARC
  5
186
330
1F
100
AcDbEntity
  8
0
  6
Continuous
 62
     7
370
    25
100
AcDbCircle
 10
616.1127711043
 20
606.8528781254
 30
0.0
 40
3.0
100
AcDbArc
 50
0.0
 51
90.0
  0
LINE
  5
187
330
1F
100
AcDbEntity
  8
0
  6
Continuous
 62
     7
370
    25
100
AcDbLine
 10
608.1127711043
 20
579.8528781254
 30
0.0
 11
616.1127711043
 21
579.8528781254
 31
0.0
  0
LINE
  5
188
330
1F
100
AcDbEntity
  8
0
  6
Continuous
 62
     7
370
    25
100
AcDbLine
 10
581.3595062462
 20
593.5678781254
 30
0.0
 11
553.3950359625
 21
593.5678781254
 31
0.0
  0
LINE
  5
189
330
1F
100
AcDbEntity
  8
0
  6
Continuous
 62
     7
370
    25
100
AcDbLine
 10
581.3595062462
 20
595.5678781254
 30
0.0
 11
553.3950359625
 21
595.5678781254
 31
0.0
  0
ARC
  5
18A
330
1F
100
AcDbEntity
  8
0
  6
Continuous
 62
     7
370
    25
100
AcDbCircle
 10
567.3772711043
 20
594.5678781254
 30
0.0
 40
11.99999999999999
100
AcDbArc
 50
4.7801918472
 51
24.6243183522
  0
ARC
  5
18B
330
1F
100
AcDbEntity
  8
0
  6
Continuous
 62
     7
370
    25
100
AcDbCircle
 10
567.3772711043
 20
594.5678781254
 30
0.0
 40
12.00000000000004
100
AcDbArc
 50
35.6853347127
 51
144.3146652873
  0
ARC
  5
18C
330
1F
100
AcDbEntity
  8
0
  6
Continuous
 62
     7
370
    25
100
AcDbCircle
 10
567.3772711043
 20
594.5678781254
 30
0.0
 40
11.99999999999999
100
AcDbArc
 50
155.3756816478
 51
175.2198081528
  0
ARC
  5
18D
330
1F
100
AcDbEntity
  8
0
  6
Continuous
 62
     7
370
    25
100
AcDbCircle
 10
567.3772711043
 20
594.5678781254
 30
0.0
 40
11.99999999999999
100
AcDbArc
 50
184.7801918472
 51
204.6243183522
  0
ARC
  5
18E
330
1F
100
AcDbEntity
  8
0
  6
Continuous
 62
     7
370
    25
100
AcDbCircle
 10
567.3772711043
 20
594.5678781254
 30
0.0
 40
12.00000000000004
100
AcDbArc
 50
215.6853347127
 51
324.3146652873
  0
ARC
  5
18F
330
1F
100
AcDbEntity
  8
0
  6
Continuous
 62
     7
370
    25
100
AcDbCircle
 10
567.3772711043
 20
594.5678781254
 30
0.0
 40
11.99999999999999
100
AcDbArc
 50
335.3756816478
 51
355.2198081528
  0
CIRCLE
  5
190
330
1F
100
AcDbEntity
  8
0
  6
Continuous
 62
     7
370
    25
100
AcDbCircle
 10
567.3772711043
 20
506.3469736767
 30
0.0
 40
0.1584054212077035
  0
CIRCLE
  5
191
330
1F
100
AcDbEntity
  8
0
  6
Continuous
 62
     7
370
    25
100
AcDbCircle
 10
567.3772711043
 20
506.3469736767
 30
0.0
 40
12.20000000000005
  0
LINE
  5
192
330
1F
100
AcDbEntity
  8
0
  6
Continuous
 62
     7
370
    25
100
AcDbLine
 10
545.8772711043
 20
659.74006638
 30
0.0
 11
545.8772711043
 21
658.0678781254
 31
0.0
  0
ARC
  5
193
330
1F
100
AcDbEntity
  8
0
  6
Continuous
 62
     7
370
    25
100
AcDbCircle
 10
567.3772711043
 20
172.4720272902
 30
0.0
 40
487.7421367059066
100
AcDbArc
 50
87.4735450256
 51
92.5264549744
  0
LINE
  5
194
330
1F
100
AcDbEntity
  8
0
  6
Continuous
 62
     7
370
    25
100
AcDbLine
 10
588.8772711043
 20
658.0678781254
 30
0.0
 11
588.8772711043
 21
659.74006638
 31
0.0
  0
LINE
  5
195
330
1F
100
AcDbEntity
  8
0
  6
Continuous
 62
     7
370
    25
100
AcDbLine
 10
588.8772711043
 20
427.0678781254
 30
0.0
 11
588.8772711043
 21
425.3954483071
 31
0.0
  0
ARC
  5
196
330
1F
100
AcDbEntity
  8
0
  6
Continuous
 62
     7
370
    25
100
AcDbCircle
 10
567.3772711043
 20
912.663487397
 30
0.0
 40
487.7421367059093
100
AcDbArc
 50
267.4735450256
 51
272.5264549744
  0
LINE
  5
197
330
1F
100
AcDbEntity
  8
0
  6
Continuous
 62
     7
370
    25
100
AcDbLine
 10
545.8772711043
 20
427.0678781254
 30
0.0
 11
545.8772711043
 21
425.3954483071
 31
0.0
  0
ARC
  5
198
330
1F
100
AcDbEntity
  8
0
  6
Continuous
 62
     7
370
    25
100
AcDbCircle
 10
562.6287178902
 20
396.1529003514
 30
0.0
 40
272.4588504184686
100
AcDbArc
 50
89.0013690757
 51
92.9983263765
  0
ARC
  5
199
330
1F
100
AcDbEntity
  8
0
  6
Continuous
 62
     7
370
    25
100
AcDbCircle
 10
572.1258243185
 20
396.1529003514
 30
0.0
 40
272.4588504184787
100
AcDbArc
 50
87.0016736235
 51
90.9986309243
  0
ARC
  5
19A
330
1F
100
AcDbEntity
  8
0
  6
Continuous
 62
     7
370
    25
100
AcDbCircle
 10
567.3772711043
 20
854.8125850983
 30
0.0
 40
438.3275867210443
100
AcDbArc
 50
267.5156457448
 51
272.4843542552
  0
ARC
  5
19B
330
1F
100
AcDbEntity
  8
0
  6
Continuous
 62
     7
370
    25
100
AcDbCircle
 10
571.8224294419
 20
434.0363208314
 30
0.0
 40
236.540608472686
100
AcDbArc
 50
86.9581163332
 51
91.0767868009
  0
ARC
  5
19C
330
1F
100
AcDbEntity
  8
0
  6
Continuous
 62
     7
370
    25
100
AcDbCircle
 10
562.9321127668
 20
434.0363208314
 30
0.0
 40
236.5406084726977
100
AcDbArc
 50
88.9232131991
 51
93.0418836668
  0
ARC
  5
19D
330
1F
100
AcDbEntity
  8
0
  6
Continuous
 62
     7
370
    25
100
AcDbCircle
 10
567.3772711043
 20
804.1182137916
 30
0.0
 40
389.5970631012916
100
AcDbArc
 50
267.4994958521
 51
272.5005041479
  0
LINE
  5
19E
330
1F
100
AcDbEntity
  8
SLD-0
100
AcDbLine
 10
562.4212631062
 20
539.03700141
 30
0.0
 11
562.4212631062
 21
534.7387548408
 31
0.0
  0
LINE
  5
19F
330
1F
100
AcDbEntity
  8
SLD-0
100
AcDbLine
 10
560.2065476192
 20
536.8878781254
 30
0.0
 11
564.6359785933
 21
536.8878781254
 31
0.0
  0
DIMENSION
  5
1A0
330
1F
100
AcDbEntity
  8
SLD-0
100
AcDbDimension
  2
_D
 10
447.2432791024
 20
536.8878781254
 30
0.0
 11
447.2432791024
 21
481.9778781254
 31
0.0
 70
   160
  1
<>
 71
     2
 42
-1.0
  3
SLDDIMSTYLE0
100
AcDbAlignedDimension
 13
487.2721024871
 23
427.0678781254
 33
0.0
 14
560.2065476192
 24
536.8878781254
 34
0.0
 50
90.0
100
AcDbRotatedDimension
  0
DIMENSION
  5
1B5
330
1F
100
AcDbEntity
  8
SLD-0
100
AcDbDimension
  2
_D_1
 10
647.5112631062
 20
379.4786622204
 30
0.0
 11
567.3772711043
 21
379.4786622204
 31
0.0
 70
   160
  1
<>
 71
     2
 42
-1.0
  3
SLDDIMSTYLE0
100
AcDbAlignedDimension
 13
487.2432791024
 23
427.1167557334
 33
0.0
 14
647.5112631062
 24
427.1167557334
 34
0.0
100
AcDbRotatedDimension
  0
INSERT
  5
1C9
330
1F
100
AcDbEntity
  8
SLD-0
100
AcDbBlockReference
  2
SW_SYMBOL_MOD_COM
 10
554.8450884173
 20
530.6641309016
 30
0.0
 41
0.0030416748
 42
0.0030416748
 43
0.0030416748
  0
INSERT
  5
1CF
330
1F
100
AcDbEntity
  8
SLD-0
100
AcDbBlockReference
  2
SW_SYMBOL_MOD_CL
 10
559.5432455366
 20
683.7258104091
 30
0.0
 41
0.0030416748
 42
0.0030416748
 43
0.0030416748
  0
LINE
  5
1D0
330
1F
100
AcDbEntity
  8
SLD-0
  6
CENTERX2
370
    18
100
AcDbLine
 10
567.3772711043
 20
677.2373442323
 30
0.0
 11
567.3772711043
 21
408.3875821994
 31
0.0
  0
LINE
  5
1D1
330
1F
100
AcDbEntity
  8
0
  6
Continuous
 62
     7
370
    25
100
AcDbLine
 10
738.4868561241
 20
443.4678781254
 30
0.0
 11
738.4868561241
 21
427.0678781254
 31
0.0
  0
LINE
  5
1D2
330
1F
100
AcDbEntity
  8
0
  6
Continuous
 62
     7
370
    25
100
AcDbLine
 10
738.4868561241
 20
658.0678781254
 30
0.0
 11
738.4868561241
 21
641.6678781254
 31
0.0
  0
LINE
  5
1D3
330
1F
100
AcDbEntity
  8
0
  6
Continuous
 62
     7
370
    25
100
AcDbLine
 10
805.0556623054
 20
660.1152931184
 30
0.0
 11
805.0024673706
 21
657.0677573436
 31
0.0
  0
LINE
  5
1D4
330
1F
100
AcDbEntity
  8
0
  6
Continuous
 62
     7
370
    25
100
AcDbLine
 10
805.0024673706
 20
428.0677573436
 30
0.0
 11
805.0556623054
 21
425.0202215687
 31
0.0
  0
LINE
  5
1D5
330
1F
100
AcDbEntity
  8
0
  6
Continuous
 62
     7
370
    25
100
AcDbLine
 10
807.703626998
 20
416.5653887397
 30
0.0
 11
809.7382272012
 21
414.6005981622
 31
0.0
  0
LINE
  5
1D6
330
1F
100
AcDbEntity
  8
0
  6
Continuous
 62
     7
370
    25
100
AcDbLine
 10
843.7330488365
 20
415.1939799811
 30
0.0
 11
845.697839414
 21
417.2285801843
 31
0.0
  0
LINE
  5
1D7
330
1F
100
AcDbEntity
  8
0
  6
Continuous
 62
     7
370
    25
100
AcDbLine
 10
807.5552857585
 20
425.0638526584
 30
0.0
 11
807.703626998
 21
416.5653887397
 31
0.0
  0
LINE
  5
1D8
330
1F
100
AcDbEntity
  8
0
  6
Continuous
 62
     7
370
    25
100
AcDbLine
 10
845.697839414
 20
417.2285801843
 30
0.0
 11
845.5494981745
 21
425.727044103
 31
0.0
  0
LINE
  5
1D9
330
1F
100
AcDbEntity
  8
0
  6
Continuous
 62
     7
370
    25
100
AcDbLine
 10
845.5494939593
 20
659.4084706577
 30
0.0
 11
845.697839414
 21
667.9071760665
 31
0.0
  0
LINE
  5
1DA
330
1F
100
AcDbEntity
  8
0
  6
Continuous
 62
     7
370
    25
100
AcDbLine
 10
807.703626998
 20
668.5703675111
 30
0.0
 11
807.5552815433
 21
660.0716621023
 31
0.0
  0
LINE
  5
1DB
330
1F
100
AcDbEntity
  8
0
  6
Continuous
 62
     7
370
    25
100
AcDbLine
 10
845.697839414
 20
667.9071760665
 30
0.0
 11
843.7330488365
 21
669.9417762697
 31
0.0
  0
LINE
  5
1DC
330
1F
100
AcDbEntity
  8
0
  6
Continuous
 62
     7
370
    25
100
AcDbLine
 10
809.7382272012
 20
670.5351580886
 30
0.0
 11
807.703626998
 21
668.5703675111
 31
0.0
  0
LINE
  5
1DD
330
1F
100
AcDbEntity
  8
0
  6
Continuous
 62
     7
370
    25
100
AcDbLine
 10
816.5016393872
 20
429.8993280208
 30
0.0
 11
816.5903313257
 21
428.2700242613
 31
0.0
  0
LINE
  5
1DE
330
1F
100
AcDbEntity
  8
0
  6
Continuous
 62
     7
370
    25
100
AcDbLine
 10
836.5998071357
 20
428.6399022969
 30
0.0
 11
836.4720728611
 21
430.98642823
 31
0.0
  0
LINE
  5
1DF
330
1F
100
AcDbEntity
  8
0
  6
Continuous
 62
     7
370
    25
100
AcDbLine
 10
836.4720728611
 20
654.1493280208
 30
0.0
 11
836.5998071357
 21
656.495853954
 31
0.0
  0
LINE
  5
1E0
330
1F
100
AcDbEntity
  8
0
  6
Continuous
 62
     7
370
    25
100
AcDbLine
 10
816.5903181886
 20
656.8654906552
 30
0.0
 11
816.5016393872
 21
655.23642823
 31
0.0
  0
LINE
  5
1E1
330
1F
100
AcDbEntity
  8
0
  6
Continuous
 62
     7
370
    25
100
AcDbLine
 10
752.4107251859
 20
427.0678781254
 30
0.0
 11
764.4868561241
 21
427.0678781254
 31
0.0
  0
LINE
  5
1E2
330
1F
100
AcDbEntity
  8
0
  6
Continuous
 62
     7
370
    25
100
AcDbLine
 10
752.4107251859
 20
658.0678781254
 30
0.0
 11
752.4107251859
 21
427.0678781254
 31
0.0
  0
LINE
  5
1E3
330
1F
100
AcDbEntity
  8
0
  6
Continuous
 62
     7
370
    25
100
AcDbLine
 10
752.4107251859
 20
658.0678781254
 30
0.0
 11
764.4868561241
 21
658.0678781254
 31
0.0
  0
LINE
  5
1E4
330
1F
100
AcDbEntity
  8
0
  6
Continuous
 62
     7
370
    25
100
AcDbLine
 10
767.3170659541
 20
657.9138142839
 30
0.0
 11
767.3170659541
 21
427.221941967
 31
0.0
  0
LINE
  5
1E5
330
1F
100
AcDbEntity
  8
0
  6
Continuous
 62
     7
370
    25
100
AcDbLine
 10
764.4868561241
 20
427.0678781254
 30
0.0
 11
767.3170659541
 21
427.221941967
 31
0.0
  0
LINE
  5
1E6
330
1F
100
AcDbEntity
  8
0
  6
Continuous
 62
     7
370
    25
100
AcDbLine
 10
767.3170659541
 20
657.9138142839
 30
0.0
 11
764.4868561241
 21
658.0678781254
 31
0.0
  0
LINE
  5
1E7
330
1F
100
AcDbEntity
  8
0
  6
Continuous
 62
     7
370
    25
100
AcDbLine
 10
884.7218269316
 20
433.6129269395
 30
0.0
 11
884.7218269316
 21
651.5228293113
 31
0.0
  0
LINE
  5
1E8
330
1F
100
AcDbEntity
  8
0
  6
Continuous
 62
     7
370
    25
100
AcDbLine
 10
767.3170659541
 20
427.221941967
 30
0.0
 11
884.7218269316
 21
433.6129269395
 31
0.0
  0
LINE
  5
1E9
330
1F
100
AcDbEntity
  8
0
  6
Continuous
 62
     7
370
    25
100
AcDbLine
 10
884.7218269316
 20
651.5228293113
 30
0.0
 11
767.3170659541
 21
657.9138142839
 31
0.0
  0
LINE
  5
1EA
330
1F
100
AcDbEntity
  8
0
  6
Continuous
 62
     7
370
    25
100
AcDbLine
 10
749.5950681132
 20
641.6678781254
 30
0.0
 11
738.4868561241
 21
641.6678781254
 31
0.0
  0
LINE
  5
1EB
330
1F
100
AcDbEntity
  8
0
  6
Continuous
 62
     7
370
    25
100
AcDbLine
 10
738.4868561241
 20
443.4678781254
 30
0.0
 11
749.5950681132
 21
443.4678781254
 31
0.0
  0
LINE
  5
1EC
330
1F
100
AcDbEntity
  8
0
  6
Continuous
 62
     7
370
    25
100
AcDbLine
 10
749.5950681132
 20
443.4678781254
 30
0.0
 11
749.5950681132
 21
641.6678781254
 31
0.0
  0
LINE
  5
1ED
330
1F
100
AcDbEntity
  8
0
  6
Continuous
 62
     7
370
    25
100
AcDbLine
 10
738.4868561241
 20
658.0678781254
 30
0.0
 11
752.4107251859
 21
658.0678781254
 31
0.0
  0
LINE
  5
1EE
330
1F
100
AcDbEntity
  8
0
  6
Continuous
 62
     7
370
    25
100
AcDbLine
 10
738.4868561241
 20
427.0678781254
 30
0.0
 11
752.4107251859
 21
427.0678781254
 31
0.0
  0
LINE
  5
1EF
330
1F
100
AcDbEntity
  8
0
  6
Continuous
 62
     7
370
    25
100
AcDbLine
 10
888.4868561241
 20
651.3178781254
 30
0.0
 11
888.4868561241
 21
433.8178781254
 31
0.0
  0
LINE
  5
1F0
330
1F
100
AcDbEntity
  8
0
  6
Continuous
 62
     7
370
    25
100
AcDbLine
 10
888.4868561241
 20
433.8178781254
 30
0.0
 11
884.7218269316
 21
433.6129269395
 31
0.0
  0
LINE
  5
1F1
330
1F
100
AcDbEntity
  8
0
  6
Continuous
 62
     7
370
    25
100
AcDbLine
 10
884.7218269316
 20
651.5228293113
 30
0.0
 11
888.4868561241
 21
651.3178781254
 31
0.0
  0
LINE
  5
1F2
330
1F
100
AcDbEntity
  8
0
  6
Continuous
 62
     7
370
    25
100
AcDbLine
 10
907.4868561241
 20
429.8566290034
 30
0.0
 11
826.4991928165
 21
428.442984082
 31
0.0
  0
LINE
  5
1F3
330
1F
100
AcDbEntity
  8
0
  6
Continuous
 62
     7
370
    25
100
AcDbLine
 10
907.4868561241
 20
655.2788856837
 30
0.0
 11
907.4868561241
 21
429.8566290034
 31
0.0
  0
LINE
  5
1F4
330
1F
100
AcDbEntity
  8
0
  6
Continuous
 62
     7
370
    25
100
AcDbLine
 10
826.4991928165
 20
656.6925306052
 30
0.0
 11
907.4868561241
 21
655.2788856837
 31
0.0
  0
LINE
  5
1F5
330
1F
100
AcDbEntity
  8
0
  6
Continuous
 62
     7
370
    25
100
AcDbLine
 10
826.4991928165
 20
656.6925306052
 30
0.0
 11
826.5523877513
 21
659.74006638
 31
0.0
  0
LINE
  5
1F6
330
1F
100
AcDbEntity
  8
0
  6
Continuous
 62
     7
370
    25
100
AcDbLine
 10
910.5348561241
 20
658.2741469417
 30
0.0
 11
910.5348561241
 21
426.8613677454
 31
0.0
  0
LINE
  5
1F7
330
1F
100
AcDbEntity
  8
0
  6
Continuous
 62
     7
370
    25
100
AcDbLine
 10
826.4991928165
 20
428.442984082
 30
0.0
 11
826.5523877513
 21
425.3954483071
 31
0.0
  0
LINE
  5
1F8
330
1F
100
AcDbEntity
  8
0
  6
Continuous
 62
     7
370
    25
100
AcDbLine
 10
910.5348561241
 20
426.8613677454
 30
0.0
 11
826.5523877513
 21
425.3954483071
 31
0.0
  0
LINE
  5
1F9
330
1F
100
AcDbEntity
  8
0
  6
Continuous
 62
     7
370
    25
100
AcDbLine
 10
826.5523877513
 20
659.74006638
 30
0.0
 11
910.5348561241
 21
658.2741469417
 31
0.0
  0
LINE
  5
1FA
330
1F
100
AcDbEntity
  8
0
  6
Continuous
 62
     7
370
    25
100
AcDbLine
 10
826.4991928165
 20
656.6925306052
 30
0.0
 11
805.0024673706
 21
657.0677573436
 31
0.0
  0
LINE
  5
1FB
330
1F
100
AcDbEntity
  8
0
  6
Continuous
 62
     7
370
    25
100
AcDbLine
 10
826.5523877513
 20
659.74006638
 30
0.0
 11
805.0556623054
 21
660.1152931184
 31
0.0
  0
LINE
  5
1FC
330
1F
100
AcDbEntity
  8
0
  6
Continuous
 62
     7
370
    25
100
AcDbLine
 10
805.0024673706
 20
428.0677573436
 30
0.0
 11
826.4991928165
 21
428.442984082
 31
0.0
  0
LINE
  5
1FD
330
1F
100
AcDbEntity
  8
0
  6
Continuous
 62
     7
370
    25
100
AcDbLine
 10
805.0556623054
 20
425.0202215687
 30
0.0
 11
826.5523877513
 21
425.3954483071
 31
0.0
  0
LINE
  5
1FE
330
1F
100
AcDbEntity
  8
0
  6
Continuous
 62
     7
370
    25
100
AcDbLine
 10
807.703626998
 20
416.5653887397
 30
0.0
 11
845.697839414
 21
417.2285801843
 31
0.0
  0
LINE
  5
1FF
330
1F
100
AcDbEntity
  8
0
  6
Continuous
 62
     7
370
    25
100
AcDbLine
 10
843.7330488365
 20
415.1939799811
 30
0.0
 11
809.7382272012
 21
414.6005981622
 31
0.0
  0
LINE
  5
200
330
1F
100
AcDbEntity
  8
0
  6
Continuous
 62
     7
370
    25
100
AcDbLine
 10
845.697839414
 20
667.9071760665
 30
0.0
 11
807.703626998
 21
668.5703675111
 31
0.0
  0
LINE
  5
201
330
1F
100
AcDbEntity
  8
0
  6
Continuous
 62
     7
370
    25
100
AcDbLine
 10
809.7382272012
 20
670.5351580886
 30
0.0
 11
843.7330488365
 21
669.9417762697
 31
0.0
  0
LINE
  5
202
330
1F
100
AcDbEntity
  8
0
  6
Continuous
 62
     7
370
    25
100
AcDbLine
 10
836.0424490329
 20
428.6095622388
 30
0.0
 11
836.5998071357
 21
428.6399022969
 31
0.0
  0
LINE
  5
203
330
1F
100
AcDbEntity
  8
0
  6
Continuous
 62
     7
370
    25
100
AcDbLine
 10
836.0489812385
 20
656.5258384282
 30
0.0
 11
836.5998071357
 21
656.495853954
 31
0.0
  0
DIMENSION
  5
204
330
1F
100
AcDbEntity
  8
SLD-0
100
AcDbDimension
  2
_D_2
 10
958.0340596012
 20
426.8613677454
 30
0.0
 11
958.0340596012
 21
542.5677573436
 31
0.0
 70
   160
  1
<>
 71
     2
 42
-1.0
  3
SLDDIMSTYLE0
100
AcDbAlignedDimension
 13
910.5348561241
 23
658.2741469417
 33
0.0
 14
910.5348561241
 24
426.8613677454
 34
0.0
 50
90.0
100
AcDbRotatedDimension
  0
LINE
  5
218
330
1F
100
AcDbEntity
  8
0
  6
Continuous
 62
     7
370
    25
100
AcDbLine
 10
312.0973180721
 20
641.6678781254
 30
0.0
 11
312.0973180721
 21
658.0678781254
 31
0.0
  0
LINE
  5
219
330
1F
100
AcDbEntity
  8
0
  6
Continuous
 62
     7
370
    25
100
AcDbLine
 10
312.0973180721
 20
427.0678781254
 30
0.0
 11
312.0973180721
 21
443.4678781254
 31
0.0
  0
LINE
  5
21A
330
1F
100
AcDbEntity
  8
0
  6
Continuous
 62
     7
370
    25
100
AcDbLine
 10
245.5817068256
 20
657.0677573436
 30
0.0
 11
245.5285118908
 21
660.1152931184
 31
0.0
  0
LINE
  5
21B
330
1F
100
AcDbEntity
  8
0
  6
Continuous
 62
     7
370
    25
100
AcDbLine
 10
245.5285118908
 20
425.0202215687
 30
0.0
 11
245.5817068256
 21
428.0677573436
 31
0.0
  0
LINE
  5
21C
330
1F
100
AcDbEntity
  8
0
  6
Continuous
 62
     7
370
    25
100
AcDbLine
 10
204.8863347823
 20
417.2285801843
 30
0.0
 11
206.8511253597
 21
415.1939799811
 31
0.0
  0
LINE
  5
21D
330
1F
100
AcDbEntity
  8
0
  6
Continuous
 62
     7
370
    25
100
AcDbLine
 10
240.845946995
 20
414.6005981622
 30
0.0
 11
242.8805471982
 21
416.5653887397
 31
0.0
  0
LINE
  5
21E
330
1F
100
AcDbEntity
  8
0
  6
Continuous
 62
     7
370
    25
100
AcDbLine
 10
205.0346760218
 20
425.727044103
 30
0.0
 11
204.8863347823
 21
417.2285801843
 31
0.0
  0
LINE
  5
21F
330
1F
100
AcDbEntity
  8
0
  6
Continuous
 62
     7
370
    25
100
AcDbLine
 10
242.8805471982
 20
416.5653887397
 30
0.0
 11
243.0288884377
 21
425.0638526584
 31
0.0
  0
LINE
  5
220
330
1F
100
AcDbEntity
  8
0
  6
Continuous
 62
     7
370
    25
100
AcDbLine
 10
243.0288926529
 20
660.0716621023
 30
0.0
 11
242.8805471982
 21
668.5703675111
 31
0.0
  0
LINE
  5
221
330
1F
100
AcDbEntity
  8
0
  6
Continuous
 62
     7
370
    25
100
AcDbLine
 10
204.8863347823
 20
667.9071760665
 30
0.0
 11
205.034680237
 21
659.4084706577
 31
0.0
  0
LINE
  5
222
330
1F
100
AcDbEntity
  8
0
  6
Continuous
 62
     7
370
    25
100
AcDbLine
 10
242.8805471982
 20
668.5703675111
 30
0.0
 11
240.845946995
 21
670.5351580886
 31
0.0
  0
LINE
  5
223
330
1F
100
AcDbEntity
  8
0
  6
Continuous
 62
     7
370
    25
100
AcDbLine
 10
206.8511253597
 20
669.9417762697
 30
0.0
 11
204.8863347823
 21
667.9071760665
 31
0.0
  0
LINE
  5
224
330
1F
100
AcDbEntity
  8
0
  6
Continuous
 62
     7
370
    25
100
AcDbLine
 10
214.1121013352
 20
430.98642823
 30
0.0
 11
213.9843670606
 21
428.6399022969
 31
0.0
  0
LINE
  5
225
330
1F
100
AcDbEntity
  8
0
  6
Continuous
 62
     7
370
    25
100
AcDbLine
 10
233.9938428705
 20
428.2700242613
 30
0.0
 11
234.0825348091
 21
429.8993280208
 31
0.0
  0
LINE
  5
226
330
1F
100
AcDbEntity
  8
0
  6
Continuous
 62
     7
370
    25
100
AcDbLine
 10
234.0825348091
 20
655.23642823
 30
0.0
 11
233.9938560077
 21
656.8654906552
 31
0.0
  0
LINE
  5
227
330
1F
100
AcDbEntity
  8
0
  6
Continuous
 62
     7
370
    25
100
AcDbLine
 10
213.9843670606
 20
656.495853954
 30
0.0
 11
214.1121013352
 21
654.1493280208
 31
0.0
  0
LINE
  5
228
330
1F
100
AcDbEntity
  8
0
  6
Continuous
 62
     7
370
    25
100
AcDbLine
 10
298.1734490103
 20
658.0678781254
 30
0.0
 11
298.1734490103
 21
427.0678781254
 31
0.0
  0
LINE
  5
229
330
1F
100
AcDbEntity
  8
0
  6
Continuous
 62
     7
370
    25
100
AcDbLine
 10
286.0973180721
 20
427.0678781254
 30
0.0
 11
298.1734490103
 21
427.0678781254
 31
0.0
  0
LINE
  5
22A
330
1F
100
AcDbEntity
  8
0
  6
Continuous
 62
     7
370
    25
100
AcDbLine
 10
283.2671082422
 20
657.9138142839
 30
0.0
 11
283.2671082422
 21
427.221941967
 31
0.0
  0
LINE
  5
22B
330
1F
100
AcDbEntity
  8
0
  6
Continuous
 62
     7
370
    25
100
AcDbLine
 10
286.0973180721
 20
658.0678781254
 30
0.0
 11
298.1734490103
 21
658.0678781254
 31
0.0
  0
LINE
  5
22C
330
1F
100
AcDbEntity
  8
0
  6
Continuous
 62
     7
370
    25
100
AcDbLine
 10
283.2671082422
 20
427.221941967
 30
0.0
 11
286.0973180721
 21
427.0678781254
 31
0.0
  0
LINE
  5
22D
330
1F
100
AcDbEntity
  8
0
  6
Continuous
 62
     7
370
    25
100
AcDbLine
 10
286.0973180721
 20
658.0678781254
 30
0.0
 11
283.2671082422
 21
657.9138142839
 31
0.0
  0
LINE
  5
22E
330
1F
100
AcDbEntity
  8
0
  6
Continuous
 62
     7
370
    25
100
AcDbLine
 10
165.8623472646
 20
651.5228293113
 30
0.0
 11
165.8623472646
 21
433.6129269395
 31
0.0
  0
LINE
  5
22F
330
1F
100
AcDbEntity
  8
0
  6
Continuous
 62
     7
370
    25
100
AcDbLine
 10
165.8623472646
 20
433.6129269395
 30
0.0
 11
283.2671082422
 21
427.221941967
 31
0.0
  0
LINE
  5
230
330
1F
100
AcDbEntity
  8
0
  6
Continuous
 62
     7
370
    25
100
AcDbLine
 10
283.2671082422
 20
657.9138142839
 30
0.0
 11
165.8623472646
 21
651.5228293113
 31
0.0
  0
LINE
  5
231
330
1F
100
AcDbEntity
  8
0
  6
Continuous
 62
     7
370
    25
100
AcDbLine
 10
312.0973180721
 20
641.6678781254
 30
0.0
 11
300.989106083
 21
641.6678781254
 31
0.0
  0
LINE
  5
232
330
1F
100
AcDbEntity
  8
0
  6
Continuous
 62
     7
370
    25
100
AcDbLine
 10
300.989106083
 20
641.6678781254
 30
0.0
 11
300.989106083
 21
443.4678781254
 31
0.0
  0
LINE
  5
233
330
1F
100
AcDbEntity
  8
0
  6
Continuous
 62
     7
370
    25
100
AcDbLine
 10
300.989106083
 20
443.4678781254
 30
0.0
 11
312.0973180721
 21
443.4678781254
 31
0.0
  0
LINE
  5
234
330
1F
100
AcDbEntity
  8
0
  6
Continuous
 62
     7
370
    25
100
AcDbLine
 10
298.1734490103
 20
658.0678781254
 30
0.0
 11
312.0973180721
 21
658.0678781254
 31
0.0
  0
LINE
  5
235
330
1F
100
AcDbEntity
  8
0
  6
Continuous
 62
     7
370
    25
100
AcDbLine
 10
298.1734490103
 20
427.0678781254
 30
0.0
 11
312.0973180721
 21
427.0678781254
 31
0.0
  0
LINE
  5
236
330
1F
100
AcDbEntity
  8
0
  6
Continuous
 62
     7
370
    25
100
AcDbLine
 10
162.0973180721
 20
433.8178781254
 30
0.0
 11
162.0973180721
 21
651.3178781254
 31
0.0
  0
LINE
  5
237
330
1F
100
AcDbEntity
  8
0
  6
Continuous
 62
     7
370
    25
100
AcDbLine
 10
165.8623472646
 20
433.6129269395
 30
0.0
 11
162.0973180721
 21
433.8178781254
 31
0.0
  0
LINE
  5
238
330
1F
100
AcDbEntity
  8
0
  6
Continuous
 62
     7
370
    25
100
AcDbLine
 10
162.0973180721
 20
651.3178781254
 30
0.0
 11
165.8623472646
 21
651.5228293113
 31
0.0
  0
LINE
  5
239
330
1F
100
AcDbEntity
  8
0
  6
Continuous
 62
     7
370
    25
100
AcDbLine
 10
140.0493180721
 20
426.8613677454
 30
0.0
 11
224.031786445
 21
425.3954483071
 31
0.0
  0
LINE
  5
23A
330
1F
100
AcDbEntity
  8
0
  6
Continuous
 62
     7
370
    25
100
AcDbLine
 10
224.031786445
 20
659.74006638
 30
0.0
 11
140.0493180721
 21
658.2741469417
 31
0.0
  0
LINE
  5
23B
330
1F
100
AcDbEntity
  8
0
  6
Continuous
 62
     7
370
    25
100
AcDbLine
 10
224.031786445
 20
659.74006638
 30
0.0
 11
224.0849813798
 21
656.6925306052
 31
0.0
  0
LINE
  5
23C
330
1F
100
AcDbEntity
  8
0
  6
Continuous
 62
     7
370
    25
100
AcDbLine
 10
224.0849813798
 20
656.6925306052
 30
0.0
 11
143.0973180721
 21
655.2788856837
 31
0.0
  0
LINE
  5
23D
330
1F
100
AcDbEntity
  8
0
  6
Continuous
 62
     7
370
    25
100
AcDbLine
 10
143.0973180721
 20
655.2788856837
 30
0.0
 11
143.0973180721
 21
429.8566290034
 31
0.0
  0
LINE
  5
23E
330
1F
100
AcDbEntity
  8
0
  6
Continuous
 62
     7
370
    25
100
AcDbLine
 10
143.0973180721
 20
429.8566290034
 30
0.0
 11
224.0849813798
 21
428.442984082
 31
0.0
  0
LINE
  5
23F
330
1F
100
AcDbEntity
  8
0
  6
Continuous
 62
     7
370
    25
100
AcDbLine
 10
224.0849813798
 20
428.442984082
 30
0.0
 11
224.031786445
 21
425.3954483071
 31
0.0
  0
LINE
  5
240
330
1F
100
AcDbEntity
  8
0
  6
Continuous
 62
     7
370
    25
100
AcDbLine
 10
140.0493180721
 20
658.2741469417
 30
0.0
 11
140.0493180721
 21
426.8613677454
 31
0.0
  0
LINE
  5
241
330
1F
100
AcDbEntity
  8
0
  6
Continuous
 62
     7
370
    25
100
AcDbLine
 10
245.5817068256
 20
657.0677573436
 30
0.0
 11
224.0849813798
 21
656.6925306052
 31
0.0
  0
LINE
  5
242
330
1F
100
AcDbEntity
  8
0
  6
Continuous
 62
     7
370
    25
100
AcDbLine
 10
245.5285118908
 20
660.1152931184
 30
0.0
 11
224.031786445
 21
659.74006638
 31
0.0
  0
LINE
  5
243
330
1F
100
AcDbEntity
  8
0
  6
Continuous
 62
     7
370
    25
100
AcDbLine
 10
224.0849813798
 20
428.442984082
 30
0.0
 11
245.5817068256
 21
428.0677573436
 31
0.0
  0
LINE
  5
244
330
1F
100
AcDbEntity
  8
0
  6
Continuous
 62
     7
370
    25
100
AcDbLine
 10
224.031786445
 20
425.3954483071
 30
0.0
 11
245.5285118908
 21
425.0202215687
 31
0.0
  0
LINE
  5
245
330
1F
100
AcDbEntity
  8
0
  6
Continuous
 62
     7
370
    25
100
AcDbLine
 10
204.8863347823
 20
417.2285801843
 30
0.0
 11
242.8805471982
 21
416.5653887397
 31
0.0
  0
LINE
  5
246
330
1F
100
AcDbEntity
  8
0
  6
Continuous
 62
     7
370
    25
100
AcDbLine
 10
240.845946995
 20
414.6005981622
 30
0.0
 11
206.8511253597
 21
415.1939799811
 31
0.0
  0
LINE
  5
247
330
1F
100
AcDbEntity
  8
0
  6
Continuous
 62
     7
370
    25
100
AcDbLine
 10
242.8805471982
 20
668.5703675111
 30
0.0
 11
204.8863347823
 21
667.9071760665
 31
0.0
  0
LINE
  5
248
330
1F
100
AcDbEntity
  8
0
  6
Continuous
 62
     7
370
    25
100
AcDbLine
 10
206.8511253597
 20
669.9417762697
 30
0.0
 11
240.845946995
 21
670.5351580886
 31
0.0
  0
LINE
  5
249
330
1F
100
AcDbEntity
  8
0
  6
Continuous
 62
     7
370
    25
100
AcDbLine
 10
213.9843670606
 20
428.6399022969
 30
0.0
 11
214.5417251633
 21
428.6095622388
 31
0.0
  0
LINE
  5
24A
330
1F
100
AcDbEntity
  8
0
  6
Continuous
 62
     7
370
    25
100
AcDbLine
 10
213.9843670606
 20
656.495853954
 30
0.0
 11
214.5351929578
 21
656.5258384282
 31
0.0
  0
DIMENSION
  5
24B
330
1F
100
AcDbEntity
  8
SLD-0
100
AcDbDimension
  2
_D_3
 10
88.7319121573
 20
414.6005981622
 30
0.0
 11
88.7319121573
 21
542.5678781254
 31
0.0
 70
   160
  1
<>
 71
     2
 42
-1.0
  3
SLDDIMSTYLE0
100
AcDbAlignedDimension
 13
240.845946995
 23
670.5351580886
 33
0.0
 14
240.845946995
 24
414.6005981622
 34
0.0
 50
90.0
100
AcDbRotatedDimension
  0
DIMENSION
  5
25F
330
1F
100
AcDbEntity
  8
SLD-0
100
AcDbDimension
  2
_D_4
 10
366.1840446402
 20
427.0678781254
 30
0.0
 11
366.1840446402
 21
542.5678781254
 31
0.0
 70
   160
  1
<>
 71
     2
 42
-1.0
  3
SLDDIMSTYLE1
100
AcDbAlignedDimension
 13
312.0973180721
 23
658.0678781254
 33
0.0
 14
312.0973180721
 24
427.0678781254
 34
0.0
 50
90.0
100
AcDbRotatedDimension
  0
LINE
  5
274
330
1F
100
AcDbEntity
  8
0
  6
Continuous
 62
     7
370
    25
100
AcDbLine
 10
548.3772711043
 20
195.9343049211
 30
0.0
 11
548.3772711043
 21
195.7859636816
 31
0.0
  0
LINE
  5
275
330
1F
100
AcDbEntity
  8
0
  6
Continuous
 62
     7
370
    25
100
AcDbLine
 10
586.3772711043
 20
195.7859636816
 30
0.0
 11
586.3772711043
 21
195.9343049211
 31
0.0
  0
CIRCLE
  5
276
330
1F
100
AcDbEntity
  8
0
  6
Continuous
 62
     7
370
    25
100
AcDbCircle
 10
567.3770699009
 20
195.7528285255
 30
0.0
 40
16.99918047555454
  0
CIRCLE
  5
277
330
1F
100
AcDbEntity
  8
0
  6
Continuous
 62
     7
370
    25
100
AcDbCircle
 10
567.3774870891
 20
195.7878869576
 30
0.0
 40
18.99902948517238
  0
ARC
  5
278
330
1F
100
AcDbEntity
  8
0
  6
Continuous
 62
     7
370
    25
100
AcDbCircle
 10
567.3772711043
 20
195.9319759998
 30
0.0
 40
19.00000014273354
100
AcDbArc
 50
0.0070230191
 51
179.9929769809
  0
LINE
  5
279
330
1F
100
AcDbEntity
  8
0
  6
Continuous
 62
     7
370
    25
100
AcDbLine
 10
588.8772711043
 20
111.9518407635
 30
0.0
 11
588.8772711043
 21
195.9343091363
 31
0.0
  0
LINE
  5
27A
330
1F
100
AcDbEntity
  8
0
  6
Continuous
 62
     7
370
    25
100
AcDbLine
 10
588.8772711043
 20
111.9518407635
 30
0.0
 11
545.8772711043
 21
111.9518407635
 31
0.0
  0
LINE
  5
27B
330
1F
100
AcDbEntity
  8
0
  6
Continuous
 62
     7
370
    25
100
AcDbLine
 10
545.8772711043
 20
111.9518407635
 30
0.0
 11
545.8772711043
 21
195.9343091363
 31
0.0
  0
ARC
  5
27C
330
1F
100
AcDbEntity
  8
0
  6
Continuous
 62
     7
370
    25
100
AcDbCircle
 10
567.3772711043
 20
195.931717749
 30
0.0
 40
21.50000015616961
100
AcDbArc
 50
0.0069058398
 51
179.9930941602
  0
LINE
  5
27D
330
1F
100
AcDbEntity
  8
0
  6
Continuous
 62
     7
370
    25
100
AcDbLine
 10
588.8772711043
 20
195.9875040712
 30
0.0
 11
588.8772711043
 21
195.9343091363
 31
0.0
  0
LINE
  5
27E
330
1F
100
AcDbEntity
  8
0
  6
Continuous
 62
     7
370
    25
100
AcDbLine
 10
545.8772711043
 20
195.9875040712
 30
0.0
 11
545.8772711043
 21
195.9343091363
 31
0.0
  0
ARC
  5
27F
330
1F
100
AcDbEntity
  8
0
  6
Continuous
 62
     7
370
    25
100
AcDbCircle
 10
567.3772711043
 20
195.9849126838
 30
0.0
 40
21.50000015616961
100
AcDbArc
 50
0.0069058398
 51
179.9930941602
  0
ARC
  5
280
330
1F
100
AcDbEntity
  8
0
  6
Continuous
 62
     7
370
    25
100
AcDbCircle
 10
501.2432791024
 20
257.101941001
 30
0.0
 40
13.99999999999985
100
AcDbArc
 50
176.3227713053
 51
187.9334125804
  0
LINE
  5
281
330
1F
100
AcDbEntity
  8
0
  6
Continuous
 62
     7
370
    25
100
AcDbLine
 10
487.2721024871
 20
257.9998407635
 30
0.0
 11
647.4824397216
 21
257.9998407635
 31
0.0
  0
ARC
  5
282
330
1F
100
AcDbEntity
  8
0
  6
Continuous
 62
     7
370
    25
100
AcDbCircle
 10
633.5112631062
 20
257.101941001
 30
0.0
 40
14.00000000000002
100
AcDbArc
 50
352.0665874196
 51
3.6772286947
  0
ARC
  5
283
330
1F
100
AcDbEntity
  8
0
  6
Continuous
 62
     7
370
    25
100
AcDbCircle
 10
350.248528288
 20
296.5762752363
 30
0.0
 40
300.0000000000011
100
AcDbArc
 50
328.0370106217
 51
352.0665874196
  0
ARC
  5
284
330
1F
100
AcDbEntity
  8
0
  6
Continuous
 62
     7
370
    25
100
AcDbCircle
 10
597.9784738047
 20
141.9998407635
 30
0.0
 40
8.0
100
AcDbArc
 50
270.0
 51
328.0370106217
  0
LINE
  5
285
330
1F
100
AcDbEntity
  8
0
  6
Continuous
 62
     7
370
    25
100
AcDbLine
 10
536.776068404
 20
133.9998407635
 30
0.0
 11
545.8772711043
 21
133.9998407635
 31
0.0
  0
LINE
  5
286
330
1F
100
AcDbEntity
  8
0
  6
Continuous
 62
     7
370
    25
100
AcDbLine
 10
588.8772711043
 20
133.9998407635
 30
0.0
 11
597.9784738047
 21
133.9998407635
 31
0.0
  0
ARC
  5
287
330
1F
100
AcDbEntity
  8
0
  6
Continuous
 62
     7
370
    25
100
AcDbCircle
 10
536.776068404
 20
141.9998407635
 30
0.0
 40
8.0
100
AcDbArc
 50
211.9629893783
 51
270.0
  0
ARC
  5
288
330
1F
100
AcDbEntity
  8
0
  6
Continuous
 62
     7
370
    25
100
AcDbCircle
 10
784.5060139206
 20
296.5762752363
 30
0.0
 40
300.000000000001
100
AcDbArc
 50
187.9334125804
 51
211.9629893783
  0
ARC
  5
289
330
1F
100
AcDbEntity
  8
0
  6
Continuous
 62
     7
370
    25
100
AcDbCircle
 10
567.3772711043
 20
93.9998407635
 30
0.0
 40
190.0000000000001
100
AcDbArc
 50
67.9286252379
 51
112.0713747621
  0
ARC
  5
28A
330
1F
100
AcDbEntity
  8
0
  6
Continuous
 62
     7
370
    25
100
AcDbCircle
 10
501.2432791024
 20
257.101941001
 30
0.0
 40
13.99999999999985
100
AcDbArc
 50
112.0713747621
 51
176.3227713053
  0
ARC
  5
28B
330
1F
100
AcDbEntity
  8
0
  6
Continuous
 62
     7
370
    25
100
AcDbCircle
 10
633.5112631062
 20
257.101941001
 30
0.0
 40
13.99999999999985
100
AcDbArc
 50
3.6772286947
 51
67.9286252379
  0
LINE
  5
28C
330
1F
100
AcDbEntity
  8
SLD-0
100
AcDbLine
 10
560.5187557487
 20
183.4998407635
 30
0.0
 11
564.2661236944
 21
183.4998407635
 31
0.0
  0
LINE
  5
28D
330
1F
100
AcDbEntity
  8
SLD-0
100
AcDbLine
 10
562.3924397216
 20
181.6633023828
 30
0.0
 11
562.3924397216
 21
185.3363791442
 31
0.0
  0
DIMENSION
  5
28E
330
1F
100
AcDbEntity
  8
SLD-0
100
AcDbDimension
  2
_D_5
 10
671.8536204355
 20
183.4998407635
 30
0.0
 11
671.8536204355
 21
212.1319203775
 31
0.0
 70
   160
  1
<>
 71
     2
 42
-1.0
  3
SLDDIMSTYLE0
100
AcDbAlignedDimension
 13
597.9784738047
 23
133.9998407635
 33
0.0
 14
564.2661236944
 24
183.4998407635
 34
0.0
 50
90.0
100
AcDbRotatedDimension
  0
DIMENSION
  5
2A3
330
1F
100
AcDbEntity
  8
SLD-0
100
AcDbDimension
  2
_D_6
 10
562.3924397215
 20
313.899713398
 30
0.0
 11
604.9374397216
 21
313.899713398
 31
0.0
 70
   160
  1
<>
 71
     2
 42
-1.0
  3
SLDDIMSTYLE0
100
AcDbAlignedDimension
 13
647.4824397216
 23
257.9998407635
 33
0.0
 14
562.3924397216
 24
185.3363791442
 34
0.0
 50
0.0
100
AcDbRotatedDimension
  0
INSERT
  5
2B7
330
1F
100
AcDbEntity
  8
SLD-0
100
AcDbBlockReference
  2
SW_SYMBOL_MOD_COM
 10
554.836771308
 20
177.246827793
 30
0.0
 41
0.0030416748
 42
0.0030416748
 43
0.0030416748
  0
LINE
  5
2B8
330
1F
100
AcDbEntity
  8
0
  6
Continuous
 62
     7
370
    25
100
AcDbLine
 10
586.3772711043
 20
839.2902421991
 30
0.0
 11
586.3772711043
 21
839.4385876539
 31
0.0
  0
LINE
  5
2B9
330
1F
100
AcDbEntity
  8
0
  6
Continuous
 62
     7
370
    25
100
AcDbLine
 10
548.3772711043
 20
839.4385876539
 30
0.0
 11
548.3772711043
 21
839.2902421991
 31
0.0
  0
CIRCLE
  5
2BA
330
1F
100
AcDbEntity
  8
0
  6
Continuous
 62
     7
370
    25
100
AcDbCircle
 10
567.3770699009
 20
839.4752621234
 30
0.0
 40
16.99918047555488
  0
CIRCLE
  5
2BB
330
1F
100
AcDbEntity
  8
0
  6
Continuous
 62
     7
370
    25
100
AcDbCircle
 10
567.3774870891
 20
839.4405109298
 30
0.0
 40
18.9990294851726
  0
ARC
  5
2BC
330
1F
100
AcDbEntity
  8
0
  6
Continuous
 62
     7
370
    25
100
AcDbCircle
 10
567.3787178902
 20
839.2916892054
 30
0.0
 40
18.99855326927505
100
AcDbArc
 50
269.9956367877
 51
359.995636123
  0
ARC
  5
2BD
330
1F
100
AcDbEntity
  8
0
  6
Continuous
 62
     7
370
    25
100
AcDbCircle
 10
567.3758243185
 20
839.2916892054
 30
0.0
 40
18.99855326927523
100
AcDbArc
 50
180.004363877
 51
270.0043632123
  0
LINE
  5
2BE
330
1F
100
AcDbEntity
  8
0
  6
Continuous
 62
     7
370
    25
100
AcDbLine
 10
545.8772711043
 20
839.2902421991
 30
0.0
 11
545.8772711043
 21
923.272710572
 31
0.0
  0
LINE
  5
2BF
330
1F
100
AcDbEntity
  8
0
  6
Continuous
 62
     7
370
    25
100
AcDbLine
 10
588.8772711043
 20
923.272710572
 30
0.0
 11
545.8772711043
 21
923.272710572
 31
0.0
  0
LINE
  5
2C0
330
1F
100
AcDbEntity
  8
0
  6
Continuous
 62
     7
370
    25
100
AcDbLine
 10
588.8772711043
 20
839.2902421991
 30
0.0
 11
588.8772711043
 21
923.272710572
 31
0.0
  0
ARC
  5
2C1
330
1F
100
AcDbEntity
  8
0
  6
Continuous
 62
     7
370
    25
100
AcDbCircle
 10
567.3772711043
 20
839.2928335865
 30
0.0
 40
21.50000015616961
100
AcDbArc
 50
180.0069058398
 51
359.9930941602
  0
LINE
  5
2C2
330
1F
100
AcDbEntity
  8
0
  6
Continuous
 62
     7
370
    25
100
AcDbLine
 10
545.8772711043
 20
839.2902421991
 30
0.0
 11
545.8772711043
 21
839.2370472643
 31
0.0
  0
LINE
  5
2C3
330
1F
100
AcDbEntity
  8
0
  6
Continuous
 62
     7
370
    25
100
AcDbLine
 10
588.8772711043
 20
839.2370472643
 30
0.0
 11
588.8772711043
 21
839.2902421991
 31
0.0
  0
ARC
  5
2C4
330
1F
100
AcDbEntity
  8
0
  6
Continuous
 62
     7
370
    25
100
AcDbCircle
 10
567.3772711043
 20
839.2396386517
 30
0.0
 40
21.50000015616961
100
AcDbArc
 50
180.0069058398
 51
359.9930941602
  0
ARC
  5
2C5
330
1F
100
AcDbEntity
  8
0
  6
Continuous
 62
     7
370
    25
100
AcDbCircle
 10
597.9784738047
 20
893.224710572
 30
0.0
 40
8.0
100
AcDbArc
 50
31.9629893783
 51
90.0
  0
ARC
  5
2C6
330
1F
100
AcDbEntity
  8
0
  6
Continuous
 62
     7
370
    25
100
AcDbCircle
 10
350.248528288
 20
738.6482760992
 30
0.0
 40
300.0000000000011
100
AcDbArc
 50
7.9334125804
 51
31.9629893783
  0
ARC
  5
2C7
330
1F
100
AcDbEntity
  8
0
  6
Continuous
 62
     7
370
    25
100
AcDbCircle
 10
633.5112631062
 20
778.1226103345
 30
0.0
 40
14.00000000000002
100
AcDbArc
 50
356.3227713053
 51
7.9334125804
  0
LINE
  5
2C8
330
1F
100
AcDbEntity
  8
0
  6
Continuous
 62
     7
370
    25
100
AcDbLine
 10
487.2721024871
 20
777.224710572
 30
0.0
 11
647.4824397216
 21
777.224710572
 31
0.0
  0
ARC
  5
2C9
330
1F
100
AcDbEntity
  8
0
  6
Continuous
 62
     7
370
    25
100
AcDbCircle
 10
501.2432791024
 20
778.1226103345
 30
0.0
 40
13.99999999999985
100
AcDbArc
 50
172.0665874196
 51
183.6772286947
  0
ARC
  5
2CA
330
1F
100
AcDbEntity
  8
0
  6
Continuous
 62
     7
370
    25
100
AcDbCircle
 10
784.5060139206
 20
738.6482760992
 30
0.0
 40
300.0000000000011
100
AcDbArc
 50
148.0370106217
 51
172.0665874196
  0
ARC
  5
2CB
330
1F
100
AcDbEntity
  8
0
  6
Continuous
 62
     7
370
    25
100
AcDbCircle
 10
536.776068404
 20
893.224710572
 30
0.0
 40
8.000000000000004
100
AcDbArc
 50
90.0
 51
148.0370106217
  0
LINE
  5
2CC
330
1F
100
AcDbEntity
  8
0
  6
Continuous
 62
     7
370
    25
100
AcDbLine
 10
536.776068404
 20
901.224710572
 30
0.0
 11
545.8772711043
 21
901.224710572
 31
0.0
  0
LINE
  5
2CD
330
1F
100
AcDbEntity
  8
0
  6
Continuous
 62
     7
370
    25
100
AcDbLine
 10
588.8772711043
 20
901.224710572
 30
0.0
 11
597.9784738047
 21
901.224710572
 31
0.0
  0
ARC
  5
2CE
330
1F
100
AcDbEntity
  8
0
  6
Continuous
 62
     7
370
    25
100
AcDbCircle
 10
567.3772711043
 20
941.224710572
 30
0.0
 40
190.0000000000002
100
AcDbArc
 50
247.9286252379
 51
292.0713747621
  0
ARC
  5
2CF
330
1F
100
AcDbEntity
  8
0
  6
Continuous
 62
     7
370
    25
100
AcDbCircle
 10
501.2432791024
 20
778.1226103345
 30
0.0
 40
13.99999999999984
100
AcDbArc
 50
183.6772286947
 51
247.9286252379
  0
ARC
  5
2D0
330
1F
100
AcDbEntity
  8
0
  6
Continuous
 62
     7
370
    25
100
AcDbCircle
 10
633.5112631062
 20
778.1226103345
 30
0.0
 40
13.99999999999984
100
AcDbArc
 50
292.0713747621
 51
356.3227713053
  0
LINE
  5
2D1
330
1F
100
AcDbEntity
  8
SLD-0
100
AcDbLine
 10
567.3772711043
 20
927.4377143066
 30
0.0
 11
567.3772711043
 21
839.4707379681
 31
0.0
  0
DIMENSION
  5
2D2
330
1F
100
AcDbEntity
  8
SLD-0
100
AcDbDimension
  2
_D_7
 10
375.2432791024
 20
923.272710572
 30
0.0
 11
375.2432791024
 21
837.248710572
 31
0.0
 70
   160
  1
<>
 71
     2
 42
-1.0
  3
SLDDIMSTYLE1
100
AcDbAlignedDimension
 13
567.3772711043
 23
751.224710572
 33
0.0
 14
545.8772711043
 24
923.272710572
 34
0.0
 50
90.0
100
AcDbRotatedDimension
  0
DIMENSION
  5
2E6
330
1F
100
AcDbEntity
  8
SLD-0
100
AcDbDimension
  2
_D_8
 10
447.2432791024
 20
901.224710572
 30
0.0
 11
447.2432791024
 21
826.224710572
 31
0.0
 70
   160
  1
<>
 71
     2
 42
-1.0
  3
SLDDIMSTYLE1
100
AcDbAlignedDimension
 13
567.3772711043
 23
751.224710572
 33
0.0
 14
536.776068404
 24
901.224710572
 34
0.0
 50
90.0
100
AcDbRotatedDimension
  0
DIMENSION
  5
2FA
330
1F
100
AcDbEntity
  8
SLD-0
100
AcDbDimension
  2
_D_9
 10
687.5112631062
 20
839.224710572
 30
0.0
 11
687.5112631062
 21
881.248710572
 31
0.0
 70
   160
  1
<>
 71
     2
 42
-1.0
  3
SLDDIMSTYLE1
100
AcDbAlignedDimension
 13
588.8772711043
 23
923.272710572
 33
0.0
 14
571.8772711043
 24
839.224710572
 34
0.0
 50
90.0
100
AcDbRotatedDimension
  0
DIMENSION
  5
30E
330
1F
100
AcDbEntity
  8
SLD-0
100
AcDbDimension
  2
_D_10
 10
545.8772711043
 20
965.9055053055
 30
0.0
 11
624.3783162884
 21
965.9055053055
 31
0.0
 70
   160
  1
<>
 71
     2
 42
-1.0
  3
SLDDIMSTYLE1
100
AcDbAlignedDimension
 13
588.8772711043
 23
923.272710572
 33
0.0
 14
545.8772711043
 24
923.272710572
 34
0.0
100
AcDbRotatedDimension
  0
INSERT
  5
322
330
1F
100
AcDbEntity
  8
SLD-0
100
AcDbBlockReference
  2
SW_SYMBOL_MOD_CL
 10
559.3952685619
 20
935.2246219599
 30
0.0
 41
0.0030416748
 42
0.0030416748
 43
0.0030416748
  0
INSERT
  5
32E
330
1F
100
AcDbEntity
  8
SLD-0
100
AcDbBlockReference
  2
SW_CENTERMARKSYMBOL_0
 10
567.3772711043
 20
839.224710572
 30
0.0
  0
LINE
  5
32F
330
1F
100
AcDbEntity
  8
0
  6
Continuous
 62
     7
370
    25
100
AcDbLine
 10
1151.1115338857
 20
416.8911964371
 30
0.0
 11
1153.1112291832
 21
414.8921103126
 31
0.0
  0
LINE
  5
330
330
1F
100
AcDbEntity
  8
0
  6
Continuous
 62
     7
370
    25
100
AcDbLine
 10
1187.1060492407
 20
414.8921103126
 30
0.0
 11
1189.1057445382
 21
416.8911964371
 31
0.0
  0
LINE
  5
331
330
1F
100
AcDbEntity
  8
0
  6
Continuous
 62
     7
370
    25
100
AcDbLine
 10
1189.1057445382
 20
668.2445598137
 30
0.0
 11
1187.1060492407
 21
670.2436459382
 31
0.0
  0
LINE
  5
332
330
1F
100
AcDbEntity
  8
0
  6
Continuous
 62
     7
370
    25
100
AcDbLine
 10
1153.1112291832
 20
670.2436459382
 30
0.0
 11
1151.1115338857
 21
668.2445598137
 31
0.0
  0
LINE
  5
333
330
1F
100
AcDbEntity
  8
0
  6
Continuous
 62
     7
370
    25
100
AcDbLine
 10
1189.1086392119
 20
659.74006638
 30
0.0
 11
1189.1086392119
 21
668.2387717888
 31
0.0
  0
LINE
  5
334
330
1F
100
AcDbEntity
  8
0
  6
Continuous
 62
     7
370
    25
100
AcDbLine
 10
1151.1086392119
 20
668.2387717888
 30
0.0
 11
1151.1086392119
 21
659.74006638
 31
0.0
  0
LINE
  5
335
330
1F
100
AcDbEntity
  8
0
  6
Continuous
 62
     7
370
    25
100
AcDbLine
 10
1151.1086392119
 20
425.3954483807
 30
0.0
 11
1151.1086392119
 21
416.896984462
 31
0.0
  0
LINE
  5
336
330
1F
100
AcDbEntity
  8
0
  6
Continuous
 62
     7
370
    25
100
AcDbLine
 10
1189.1086392119
 20
416.896984462
 30
0.0
 11
1189.1086392119
 21
425.3954483807
 31
0.0
  0
LINE
  5
337
330
1F
100
AcDbEntity
  8
0
  6
Continuous
 62
     7
370
    25
100
AcDbLine
 10
1250.2426312139
 20
427.1167557334
 30
0.0
 11
1250.2426312139
 21
658.0190005174
 31
0.0
  0
LINE
  5
338
330
1F
100
AcDbEntity
  8
0
  6
Continuous
 62
     7
370
    25
100
AcDbLine
 10
1089.97464721
 20
658.0190005174
 30
0.0
 11
1089.97464721
 21
427.1167557334
 31
0.0
  0
LINE
  5
339
330
1F
100
AcDbEntity
  8
0
  6
Continuous
 62
     7
370
    25
100
AcDbLine
 10
1191.6086392119
 20
659.74006638
 30
0.0
 11
1191.6086392119
 21
658.2741469417
 31
0.0
  0
LINE
  5
33A
330
1F
100
AcDbEntity
  8
0
  6
Continuous
 62
     7
370
    25
100
AcDbLine
 10
1148.6086392119
 20
658.2741469417
 30
0.0
 11
1191.6086392119
 21
658.2741469417
 31
0.0
  0
LINE
  5
33B
330
1F
100
AcDbEntity
  8
0
  6
Continuous
 62
     7
370
    25
100
AcDbLine
 10
1148.6086392119
 20
659.74006638
 30
0.0
 11
1148.6086392119
 21
658.2741469417
 31
0.0
  0
ARC
  5
33C
330
1F
100
AcDbEntity
  8
0
  6
Continuous
 62
     7
370
    25
100
AcDbCircle
 10
1151.0833144758
 20
642.3934273678
 30
0.0
 40
17.52226876524902
100
AcDbArc
 50
89.9171910313
 51
98.1190446185
  0
ARC
  5
33D
330
1F
100
AcDbEntity
  8
0
  6
Continuous
 62
     7
370
    25
100
AcDbCircle
 10
1189.319156725
 20
645.0298268519
 30
0.0
 40
14.88733948801344
100
AcDbArc
 50
81.1535344879
 51
90.8102298624
  0
ARC
  5
33E
330
1F
100
AcDbEntity
  8
0
  6
Continuous
 62
     7
370
    25
100
AcDbCircle
 10
1170.1086392119
 20
1081.3477886577
 30
0.0
 40
422.0356282166304
100
AcDbArc
 50
267.4196778474
 51
272.5803221526
  0
LINE
  5
33F
330
1F
100
AcDbEntity
  8
0
  6
Continuous
 62
     7
370
    25
100
AcDbLine
 10
1191.6086392119
 20
460.0927138795
 30
0.0
 11
1191.6086392119
 21
426.8613677454
 31
0.0
  0
LINE
  5
340
330
1F
100
AcDbEntity
  8
0
  6
Continuous
 62
     7
370
    25
100
AcDbLine
 10
1148.6086392119
 20
426.8613677454
 30
0.0
 11
1191.6086392119
 21
426.8613677454
 31
0.0
  0
LINE
  5
341
330
1F
100
AcDbEntity
  8
0
  6
Continuous
 62
     7
370
    25
100
AcDbLine
 10
1148.6086392067
 20
464.0270423826
 30
0.0
 11
1148.6086392119
 21
426.8613677454
 31
0.0
  0
SPLINE
  5
342
330
1F
100
AcDbEntity
  8
0
  6
Continuous
 62
     7
370
    25
100
AcDbSpline
210
0.0
220
0.0
230
1.0
 70
     8
 71
     3
 72
    11
 73
     7
 74
     0
 42
0.00000001
 43
0.00000001
 40
0.2864041700245658
 40
0.2864041700245658
 40
0.2864041700245658
 40
0.2864041700245658
 40
0.3211616873808307
 40
0.3719974483635945
 40
0.4203112977910872
 40
0.4481455015522384
 40
0.4481455015522384
 40
0.4481455015522384
 40
0.4481455015522384
 10
1148.608639206729
 20
464.0270423826092
 30
0.0
 10
1150.601496563054
 20
459.5917131792638
 30
0.0
 10
1156.534174604288
 20
451.9433774043525
 30
0.0
 10
1171.582487170577
 20
473.8684134160063
 30
0.0
 10
1185.737724377421
 20
453.4366194761377
 30
0.0
 10
1190.287165659371
 20
457.3663713872065
 30
0.0
 10
1191.60863921201
 20
460.092713879503
 30
0.0
  0
CIRCLE
  5
343
330
1F
100
AcDbEntity
  8
0
  6
Continuous
 62
     7
370
    25
100
AcDbCircle
 10
1170.1086392119
 20
615.2788856837
 30
0.0
 40
3.25
  0
LINE
  5
344
330
1F
100
AcDbEntity
  8
0
  6
Continuous
 62
     7
370
    25
100
AcDbLine
 10
1148.6086392119
 20
658.2741469417
 30
0.0
 11
1148.6086392012
 21
587.551851263
 31
0.0
  0
LINE
  5
345
330
1F
100
AcDbEntity
  8
0
  6
Continuous
 62
     7
370
    25
100
AcDbLine
 10
1191.6086392119
 20
658.2741469417
 30
0.0
 11
1191.6086392126
 21
589.01803004
 31
0.0
  0
SPLINE
  5
346
330
1F
100
AcDbEntity
  8
0
  6
Continuous
 62
     7
370
    25
100
AcDbSpline
210
0.0
220
0.0
230
1.0
 70
     8
 71
     3
 72
    11
 73
     7
 74
     0
 42
0.00000001
 43
0.00000001
 40
0.7896318852350905
 40
0.7896318852350905
 40
0.7896318852350905
 40
0.7896318852350905
 40
0.826148903412853
 40
0.8684837448228518
 40
0.9182669659868259
 40
0.959055007636185
 40
0.959055007636185
 40
0.959055007636185
 40
0.959055007636185
 10
1191.608639212557
 20
589.018030040048
 30
0.0
 10
1189.154559874283
 20
593.566344214737
 30
0.0
 10
1183.118389256294
 20
599.833154466429
 30
0.0
 10
1171.169098098736
 20
578.0271232113001
 30
0.0
 10
1155.616953442398
 20
600.3830550234543
 30
0.0
 10
1150.381480492997
 20
592.8799445790142
 30
0.0
 10
1148.608639201207
 20
587.5518512630176
 30
0.0
  0
LINE
  5
347
330
1F
100
AcDbEntity
  8
0
  6
Continuous
 62
     7
370
    25
100
AcDbLine
 10
1148.6086392119
 20
426.8613677454
 30
0.0
 11
1148.6086392119
 21
425.3954483071
 31
0.0
  0
ARC
  5
348
330
1F
100
AcDbEntity
  8
0
  6
Continuous
 62
     7
370
    25
100
AcDbCircle
 10
1189.1339639481
 20
442.7420873193
 30
0.0
 40
17.52226876524364
100
AcDbArc
 50
269.9171910313
 51
278.1190446185
  0
ARC
  5
349
330
1F
100
AcDbEntity
  8
0
  6
Continuous
 62
     7
370
    25
100
AcDbCircle
 10
1150.8981216989
 20
440.1056878352
 30
0.0
 40
14.88733948801037
100
AcDbArc
 50
261.1535344879
 51
270.8102298624
  0
ARC
  5
34A
330
1F
100
AcDbEntity
  8
0
  6
Continuous
 62
     7
370
    25
100
AcDbCircle
 10
1165.3600859978
 20
153.3095769431
 30
0.0
 40
272.4588504186812
100
AcDbArc
 50
89.0013690757
 51
92.9983263765
  0
ARC
  5
34B
330
1F
100
AcDbEntity
  8
0
  6
Continuous
 62
     7
370
    25
100
AcDbCircle
 10
1174.8571924261
 20
153.309576943
 30
0.0
 40
272.4588504187117
100
AcDbArc
 50
87.0016736235
 51
90.9986309243
  0
LINE
  5
34C
330
1F
100
AcDbEntity
  8
0
  6
Continuous
 62
     7
370
    25
100
AcDbLine
 10
1191.6086392119
 20
426.8613677454
 30
0.0
 11
1191.6086392119
 21
425.3954483071
 31
0.0
  0
ELLIPSE
  5
34D
330
1F
100
AcDbEntity
  8
0
  6
Continuous
 62
     7
370
    25
100
AcDbEllipse
 10
1236.2426312139
 20
427.1167557334
 30
0.0
 11
13.99999999999977
 21
0.0
 31
0.0
210
0.0
220
0.0
230
1.0
 40
0.0544354839
 41
6.219005559107919
 42
6.42164947762608
  0
LINE
  5
34E
330
1F
100
AcDbEntity
  8
0
  6
Continuous
 62
     7
370
    25
100
AcDbLine
 10
1250.2138078292
 20
427.0678781254
 30
0.0
 11
1191.6086392119
 21
427.0678781254
 31
0.0
  0
LINE
  5
34F
330
1F
100
AcDbEntity
  8
0
  6
Continuous
 62
     7
370
    25
100
AcDbLine
 10
1148.6086392119
 20
427.0678781254
 30
0.0
 11
1090.0034705947
 21
427.0678781254
 31
0.0
  0
ELLIPSE
  5
350
330
1F
100
AcDbEntity
  8
0
  6
Continuous
 62
     7
370
    25
100
AcDbEllipse
 10
1103.97464721
 20
427.1167557334
 30
0.0
 11
13.99999999999977
 21
0.0
 31
0.0
210
0.0
220
0.0
230
1.0
 40
0.0544354839
 41
3.003128483143213
 42
3.205772401661973
  0
ELLIPSE
  5
351
330
1F
100
AcDbEntity
  8
0
  6
Continuous
 62
     7
370
    25
100
AcDbEllipse
 10
1387.2373820282
 20
424.9679512489
 30
0.0
 11
300.0000000000009
 21
0.0
 31
0.0
210
0.0
220
0.0
230
1.0
 40
0.0544354839
 41
2.58373325015902
 42
3.003128483143219
  0
ELLIPSE
  5
352
330
1F
100
AcDbEntity
  8
0
  6
Continuous
 62
     7
370
    25
100
AcDbEllipse
 10
1139.5074365116
 20
433.3823942544
 30
0.0
 11
8.0
 21
0.0
 31
0.0
210
0.0
220
0.0
230
1.0
 40
0.0544354839
 41
1.570796326794897
 42
2.583733250158998
  0
LINE
  5
353
330
1F
100
AcDbEntity
  8
0
  6
Continuous
 62
     7
370
    25
100
AcDbLine
 10
1200.7098419123
 20
433.8178781254
 30
0.0
 11
1191.6086392119
 21
433.8178781254
 31
0.0
  0
LINE
  5
354
330
1F
100
AcDbEntity
  8
0
  6
Continuous
 62
     7
370
    25
100
AcDbLine
 10
1148.608639211
 20
433.8178781254
 30
0.0
 11
1139.5074365116
 21
433.8178781254
 31
0.0
  0
ELLIPSE
  5
355
330
1F
100
AcDbEntity
  8
0
  6
Continuous
 62
     7
370
    25
100
AcDbEllipse
 10
1200.7098419123
 20
433.3823942544
 30
0.0
 11
8.0
 21
0.0
 31
0.0
210
0.0
220
0.0
230
1.0
 40
0.0544354839
 41
0.5578594034307942
 42
1.570796326794897
  0
ELLIPSE
  5
356
330
1F
100
AcDbEntity
  8
0
  6
Continuous
 62
     7
370
    25
100
AcDbEllipse
 10
952.9798963957
 20
424.9679512489
 30
0.0
 11
300.000000000001
 21
0.0
 31
0.0
210
0.0
220
0.0
230
1.0
 40
0.0544354839
 41
0.1384641704465688
 42
0.5578594034307749
  0
ELLIPSE
  5
357
330
1F
100
AcDbEntity
  8
0
  6
Continuous
 62
     7
370
    25
100
AcDbEllipse
 10
1139.5074365116
 20
651.7533619964
 30
0.0
 11
8.0
 21
0.0
 31
0.0
210
0.0
220
0.0
230
1.0
 40
0.0544354839
 41
3.699452057020778
 42
4.712388980384691
  0
ELLIPSE
  5
358
330
1F
100
AcDbEntity
  8
0
  6
Continuous
 62
     7
370
    25
100
AcDbEllipse
 10
1387.2373820282
 20
660.167805002
 30
0.0
 11
300.0000000000009
 21
0.0
 31
0.0
210
0.0
220
0.0
230
1.0
 40
0.0544354839
 41
3.280056824036619
 42
3.699452057020751
  0
ELLIPSE
  5
359
330
1F
100
AcDbEntity
  8
0
  6
Continuous
 62
     7
370
    25
100
AcDbEllipse
 10
1103.97464721
 20
658.0190005174
 30
0.0
 11
13.99999999999977
 21
0.0
 31
0.0
210
0.0
220
0.0
230
1.0
 40
0.0544354839
 41
3.077412905517864
 42
3.280056824036707
  0
LINE
  5
35A
330
1F
100
AcDbEntity
  8
0
  6
Continuous
 62
     7
370
    25
100
AcDbLine
 10
1250.2138078292
 20
658.0678781254
 30
0.0
 11
1191.6086392119
 21
658.0678781254
 31
0.0
  0
LINE
  5
35B
330
1F
100
AcDbEntity
  8
0
  6
Continuous
 62
     7
370
    25
100
AcDbLine
 10
1148.6086392119
 20
658.0678781254
 30
0.0
 11
1090.0034705947
 21
658.0678781254
 31
0.0
  0
ELLIPSE
  5
35C
330
1F
100
AcDbEntity
  8
0
  6
Continuous
 62
     7
370
    25
100
AcDbEllipse
 10
1236.2426312139
 20
658.0190005174
 30
0.0
 11
13.99999999999977
 21
0.0
 31
0.0
210
0.0
220
0.0
230
1.0
 40
0.0544354839
 41
6.144721136733169
 42
6.347365055251509
  0
ELLIPSE
  5
35D
330
1F
100
AcDbEntity
  8
0
  6
Continuous
 62
     7
370
    25
100
AcDbEllipse
 10
952.9798963957
 20
660.167805002
 30
0.0
 11
300.000000000001
 21
0.0
 31
0.0
210
0.0
220
0.0
230
1.0
 40
0.0544354839
 41
5.725325903748994
 42
6.144721136733265
  0
ELLIPSE
  5
35E
330
1F
100
AcDbEntity
  8
0
  6
Continuous
 62
     7
370
    25
100
AcDbEllipse
 10
1200.7098419123
 20
651.7533619964
 30
0.0
 11
8.0
 21
0.0
 31
0.0
210
0.0
220
0.0
230
1.0
 40
0.0544354839
 41
4.712388980384691
 42
5.725325903748972
  0
LINE
  5
35F
330
1F
100
AcDbEntity
  8
0
  6
Continuous
 62
     7
370
    25
100
AcDbLine
 10
1200.7098419123
 20
651.3178781254
 30
0.0
 11
1191.608639212
 21
651.3178781254
 31
0.0
  0
LINE
  5
360
330
1F
100
AcDbEntity
  8
0
  6
Continuous
 62
     7
370
    25
100
AcDbLine
 10
1148.6086392109
 20
651.3178781254
 30
0.0
 11
1139.5074365116
 21
651.3178781254
 31
0.0
  0
LINE
  5
361
330
1F
100
AcDbEntity
  8
0
  6
Continuous
 62
     7
370
    25
100
AcDbLine
 10
1207.4969637073
 20
651.5228293113
 30
0.0
 11
1207.4969637073
 21
433.6129269395
 31
0.0
  0
LINE
  5
362
330
1F
100
AcDbEntity
  8
0
  6
Continuous
 62
     7
370
    25
100
AcDbLine
 10
1200.7098419123
 20
433.8178781254
 30
0.0
 11
1200.7098419123
 21
651.3178781254
 31
0.0
  0
LINE
  5
363
330
1F
100
AcDbEntity
  8
0
  6
Continuous
 62
     7
370
    25
100
AcDbLine
 10
1139.5074365116
 20
651.3178781254
 30
0.0
 11
1139.5074365116
 21
433.8178781254
 31
0.0
  0
LINE
  5
364
330
1F
100
AcDbEntity
  8
0
  6
Continuous
 62
     7
370
    25
100
AcDbLine
 10
1190.1086392119
 20
478.1178781254
 30
0.0
 11
1190.1086392119
 21
576.9378781254
 31
0.0
  0
LINE
  5
365
330
1F
100
AcDbEntity
  8
0
  6
Continuous
 62
     7
370
    25
100
AcDbLine
 10
1190.1086392119
 20
576.9378781254
 30
0.0
 11
1150.1086392119
 21
576.9378781254
 31
0.0
  0
LINE
  5
366
330
1F
100
AcDbEntity
  8
0
  6
Continuous
 62
     7
370
    25
100
AcDbLine
 10
1150.1086392119
 20
576.9378781254
 30
0.0
 11
1150.1086392119
 21
478.1178781254
 31
0.0
  0
LINE
  5
367
330
1F
100
AcDbEntity
  8
0
  6
Continuous
 62
     7
370
    25
100
AcDbLine
 10
1150.1086392119
 20
478.1178781254
 30
0.0
 11
1190.1086392119
 21
478.1178781254
 31
0.0
  0
LINE
  5
368
330
1F
100
AcDbEntity
  8
0
  6
Continuous
 62
     7
370
    25
100
AcDbLine
 10
1132.7203147166
 20
433.6129269395
 30
0.0
 11
1132.7203147166
 21
651.5228293113
 31
0.0
  0
LINE
  5
369
330
1F
100
AcDbEntity
  8
0
  6
Continuous
 62
     7
370
    25
100
AcDbLine
 10
1250.1086392119
 20
657.9138142839
 30
0.0
 11
1250.1086392119
 21
427.221941967
 31
0.0
  0
LINE
  5
36A
330
1F
100
AcDbEntity
  8
0
  6
Continuous
 62
     7
370
    25
100
AcDbLine
 10
1090.1086392119
 20
657.9138142839
 30
0.0
 11
1090.1086392119
 21
427.221941967
 31
0.0
  0
CIRCLE
  5
36B
330
1F
100
AcDbEntity
  8
0
  6
Continuous
 62
     7
370
    25
100
AcDbCircle
 10
1170.1086392119
 20
498.5678781254
 30
0.0
 40
10.0
  0
LINE
  5
36C
330
1F
100
AcDbEntity
  8
0
  6
Continuous
 62
     7
370
    25
100
AcDbLine
 10
1184.1086392119
 20
512.5678781254
 30
0.0
 11
1156.1086392119
 21
512.5678781254
 31
0.0
  0
LINE
  5
36D
330
1F
100
AcDbEntity
  8
0
  6
Continuous
 62
     7
370
    25
100
AcDbLine
 10
1156.1086392119
 20
484.5678781254
 30
0.0
 11
1184.1086392119
 21
484.5678781254
 31
0.0
  0
LINE
  5
36E
330
1F
100
AcDbEntity
  8
0
  6
Continuous
 62
     7
370
    25
100
AcDbLine
 10
1156.1086392119
 20
512.5678781254
 30
0.0
 11
1156.1086392119
 21
484.5678781254
 31
0.0
  0
LINE
  5
36F
330
1F
100
AcDbEntity
  8
0
  6
Continuous
 62
     7
370
    25
100
AcDbLine
 10
1184.1086392119
 20
484.5678781254
 30
0.0
 11
1184.1086392119
 21
512.5678781254
 31
0.0
  0
LINE
  5
370
330
1F
100
AcDbEntity
  8
0
  6
Continuous
 62
     7
370
    25
100
AcDbLine
 10
1159.6086392119
 20
558.3278781254
 30
0.0
 11
1163.2736392119
 21
558.3278781254
 31
0.0
  0
LINE
  5
371
330
1F
100
AcDbEntity
  8
0
  6
Continuous
 62
     7
370
    25
100
AcDbLine
 10
1163.2736392119
 20
558.3278781254
 30
0.0
 11
1163.2736392119
 21
556.3278781254
 31
0.0
  0
LINE
  5
372
330
1F
100
AcDbEntity
  8
0
  6
Continuous
 62
     7
370
    25
100
AcDbLine
 10
1163.2736392119
 20
556.3278781254
 30
0.0
 11
1165.2736392119
 21
556.3278781254
 31
0.0
  0
LINE
  5
373
330
1F
100
AcDbEntity
  8
0
  6
Continuous
 62
     7
370
    25
100
AcDbLine
 10
1165.2736392119
 20
556.3278781254
 30
0.0
 11
1165.2736392119
 21
558.3278781254
 31
0.0
  0
LINE
  5
374
330
1F
100
AcDbEntity
  8
0
  6
Continuous
 62
     7
370
    25
100
AcDbLine
 10
1165.2736392119
 20
558.3278781254
 30
0.0
 11
1170.3186392119
 21
558.3278781254
 31
0.0
  0
LINE
  5
375
330
1F
100
AcDbEntity
  8
0
  6
Continuous
 62
     7
370
    25
100
AcDbLine
 10
1170.3186392119
 20
558.3278781254
 30
0.0
 11
1170.3186392119
 21
556.3278781254
 31
0.0
  0
LINE
  5
376
330
1F
100
AcDbEntity
  8
0
  6
Continuous
 62
     7
370
    25
100
AcDbLine
 10
1170.3186392119
 20
556.3278781254
 30
0.0
 11
1172.3186392119
 21
556.3278781254
 31
0.0
  0
LINE
  5
377
330
1F
100
AcDbEntity
  8
0
  6
Continuous
 62
     7
370
    25
100
AcDbLine
 10
1172.3186392119
 20
556.3278781254
 30
0.0
 11
1172.3186392119
 21
558.3278781254
 31
0.0
  0
LINE
  5
378
330
1F
100
AcDbEntity
  8
0
  6
Continuous
 62
     7
370
    25
100
AcDbLine
 10
1172.3186392119
 20
558.3278781254
 30
0.0
 11
1174.8086392119
 21
558.3278781254
 31
0.0
  0
LINE
  5
379
330
1F
100
AcDbEntity
  8
0
  6
Continuous
 62
     7
370
    25
100
AcDbLine
 10
1174.8086392119
 20
558.3278781254
 30
0.0
 11
1174.8086392119
 21
556.3278781254
 31
0.0
  0
LINE
  5
37A
330
1F
100
AcDbEntity
  8
0
  6
Continuous
 62
     7
370
    25
100
AcDbLine
 10
1174.8086392119
 20
556.3278781254
 30
0.0
 11
1176.8086392119
 21
556.3278781254
 31
0.0
  0
LINE
  5
37B
330
1F
100
AcDbEntity
  8
0
  6
Continuous
 62
     7
370
    25
100
AcDbLine
 10
1176.8086392119
 20
556.3278781254
 30
0.0
 11
1176.8086392119
 21
558.3278781254
 31
0.0
  0
LINE
  5
37C
330
1F
100
AcDbEntity
  8
0
  6
Continuous
 62
     7
370
    25
100
AcDbLine
 10
1176.8086392119
 20
558.3278781254
 30
0.0
 11
1180.6086392119
 21
558.3278781254
 31
0.0
  0
LINE
  5
37D
330
1F
100
AcDbEntity
  8
0
  6
Continuous
 62
     7
370
    25
100
AcDbLine
 10
1180.6086392119
 20
558.3278781254
 30
0.0
 11
1180.6086392119
 21
567.1278781254
 31
0.0
  0
LINE
  5
37E
330
1F
100
AcDbEntity
  8
0
  6
Continuous
 62
     7
370
    25
100
AcDbLine
 10
1180.6086392119
 20
567.1278781254
 30
0.0
 11
1159.6086392119
 21
567.1278781254
 31
0.0
  0
LINE
  5
37F
330
1F
100
AcDbEntity
  8
0
  6
Continuous
 62
     7
370
    25
100
AcDbLine
 10
1159.6086392119
 20
567.1278781254
 30
0.0
 11
1159.6086392119
 21
558.3278781254
 31
0.0
  0
CIRCLE
  5
380
330
1F
100
AcDbEntity
  8
0
  6
Continuous
 62
     7
370
    25
100
AcDbCircle
 10
1170.1086392119
 20
498.5678781254
 30
0.0
 40
4.500000000000227
  0
LWPOLYLINE
  5
381
330
1F
100
AcDbEntity
  8
0
  6
Continuous
 62
     7
370
    25
100
AcDbPolyline
 90
       16
 70
   128
 43
0.0
 10
1170.1086392119
 20
417.2285801843
 10
1172.2359642579
 20
417.22649518
 10
1174.3365369571
 20
417.2202663872
 10
1176.3839413891
 20
417.2099721367
 10
1178.3524302552
 20
417.1957418845
 10
1180.2172486657
 20
417.1777545844
 10
1181.9549454473
 20
417.1562364371
 10
1183.5436680545
 20
417.1314580459
 10
1184.9634373788
 20
417.1037310132
 10
1186.1963989973
 20
417.0734040227
 10
1187.2270477021
 20
417.0408584539
 10
1188.0424224878
 20
417.0065035861
 10
1188.6322695434
 20
416.9707714518
 10
1188.9891711999
 20
416.9341114033
 10
1189.1086392119
 20
416.896984462
 10
1189.1057445382
 20
416.8911964371
  0
LWPOLYLINE
  5
382
330
1F
100
AcDbEntity
  8
0
  6
Continuous
 62
     7
370
    25
100
AcDbPolyline
 90
       16
 70
   128
 43
0.0
 10
1151.1115338857
 20
416.8911964371
 10
1151.1086392119
 20
416.896984462
 10
1151.228107224
 20
416.9341114033
 10
1151.5850088805
 20
416.9707714518
 10
1152.1748559361
 20
417.0065035861
 10
1152.9902307218
 20
417.0408584539
 10
1154.0208794266
 20
417.0734040227
 10
1155.2538410451
 20
417.1037310132
 10
1156.6736103694
 20
417.1314580459
 10
1158.2623329766
 20
417.1562364371
 10
1160.0000297582
 20
417.1777545844
 10
1161.8648481687
 20
417.1957418845
 10
1163.8333370348
 20
417.2099721367
 10
1165.8807414668
 20
417.2202663872
 10
1167.981314166
 20
417.22649518
 10
1170.1086392119
 20
417.2285801843
  0
LWPOLYLINE
  5
383
330
1F
100
AcDbEntity
  8
0
  6
Continuous
 62
     7
370
    25
100
AcDbPolyline
 90
       54
 70
   128
 43
0.0
 10
1170.1086392119
 20
415.1939799811
 10
1168.0979953063
 20
415.1918975361
 10
1166.1155764337
 20
415.1856794341
 10
1164.1892114096
 20
415.1754129635
 10
1162.3459421763
 20
415.1612422431
 10
1160.6116441933
 20
415.1433661988
 10
1159.0106632027
 20
415.122035771
 10
1157.5654734682
 20
415.0975503923
 10
1156.2963622858
 20
415.0702537835
 10
1155.2211451946
 20
415.0405291294
 10
1154.3549158856
 20
415.0087936988
 10
1153.7098343195
 20
414.9754929877
 10
1153.2949560275
 20
414.941094465
 10
1153.1161049913
 20
414.9060810107
 10
1153.1757918875
 20
414.8709441367
 10
1153.4731788429
 20
414.836177088
 10
1154.0040911964
 20
414.8022679175
 10
1154.7610761025
 20
414.7696926357
 10
1155.7335071524
 20
414.7389085282
 10
1156.9077335457
 20
414.7103477363
 10
1158.2672717179
 20
414.6844111911
 10
1159.793036733
 20
414.6614629846
 10
1161.4636101949
 20
414.6418252594
 10
1163.255540914
 20
414.6257736862
 10
1165.1436741111
 20
414.6135335939
 10
1167.1015045349
 20
414.6052768064
 10
1169.1015485378
 20
414.6011192311
 10
1171.1157298861
 20
414.6011192311
 10
1173.115773889
 20
414.6052768064
 10
1175.0736043128
 20
414.6135335939
 10
1176.9617375098
 20
414.6257736862
 10
1178.753668229
 20
414.6418252594
 10
1180.4242416909
 20
414.6614629846
 10
1181.950006706
 20
414.6844111911
 10
1183.3095448782
 20
414.7103477363
 10
1184.4837712715
 20
414.7389085282
 10
1185.4562023214
 20
414.7696926357
 10
1186.2131872275
 20
414.8022679175
 10
1186.744099581
 20
414.836177088
 10
1187.0414865364
 20
414.8709441367
 10
1187.1011734326
 20
414.9060810107
 10
1186.9223223964
 20
414.941094465
 10
1186.5074441044
 20
414.9754929877
 10
1185.8623625383
 20
415.0087936988
 10
1184.9961332293
 20
415.0405291294
 10
1183.920916138
 20
415.0702537835
 10
1182.6518049557
 20
415.0975503923
 10
1181.2066152212
 20
415.122035771
 10
1179.6056342306
 20
415.1433661988
 10
1177.8713362476
 20
415.1612422431
 10
1176.0280670143
 20
415.1754129635
 10
1174.1017019902
 20
415.1856794341
 10
1172.1192831176
 20
415.1918975361
 10
1170.1086392119
 20
415.1939799811
  0
LWPOLYLINE
  5
384
330
1F
100
AcDbEntity
  8
0
  6
Continuous
 62
     7
370
    25
100
AcDbPolyline
 90
       54
 70
   128
 43
0.0
 10
1170.1086392119
 20
670.5351580886
 10
1168.0979953063
 20
670.5330756436
 10
1166.1155764337
 20
670.5268575415
 10
1164.1892114096
 20
670.5165910709
 10
1162.3459421763
 20
670.5024203505
 10
1160.6116441933
 20
670.4845443062
 10
1159.0106632027
 20
670.4632138785
 10
1157.5654734682
 20
670.4387284997
 10
1156.2963622858
 20
670.411431891
 10
1155.2211451946
 20
670.3817072368
 10
1154.3549158856
 20
670.3499718063
 10
1153.7098343195
 20
670.3166710952
 10
1153.2949560275
 20
670.2822725725
 10
1153.1161049913
 20
670.2472591181
 10
1153.1757918875
 20
670.2121222442
 10
1153.4731788429
 20
670.1773551954
 10
1154.0040911964
 20
670.1434460249
 10
1154.7610761025
 20
670.1108707432
 10
1155.7335071524
 20
670.0800866357
 10
1156.9077335457
 20
670.0515258438
 10
1158.2672717179
 20
670.0255892985
 10
1159.793036733
 20
670.002641092
 10
1161.4636101949
 20
669.9830033669
 10
1163.255540914
 20
669.9669517937
 10
1165.1436741111
 20
669.9547117013
 10
1167.1015045349
 20
669.9464549139
 10
1169.1015485378
 20
669.9422973385
 10
1171.1157298861
 20
669.9422973385
 10
1173.115773889
 20
669.9464549139
 10
1175.0736043128
 20
669.9547117013
 10
1176.9617375098
 20
669.9669517937
 10
1178.753668229
 20
669.9830033669
 10
1180.4242416909
 20
670.002641092
 10
1181.950006706
 20
670.0255892985
 10
1183.3095448782
 20
670.0515258438
 10
1184.4837712715
 20
670.0800866357
 10
1185.4562023214
 20
670.1108707432
 10
1186.2131872275
 20
670.1434460249
 10
1186.744099581
 20
670.1773551954
 10
1187.0414865364
 20
670.2121222442
 10
1187.1011734326
 20
670.2472591181
 10
1186.9223223964
 20
670.2822725725
 10
1186.5074441044
 20
670.3166710952
 10
1185.8623625383
 20
670.3499718063
 10
1184.9961332293
 20
670.3817072368
 10
1183.920916138
 20
670.411431891
 10
1182.6518049557
 20
670.4387284997
 10
1181.2066152212
 20
670.4632138785
 10
1179.6056342306
 20
670.4845443062
 10
1177.8713362476
 20
670.5024203505
 10
1176.0280670143
 20
670.5165910709
 10
1174.1017019902
 20
670.5268575415
 10
1172.1192831176
 20
670.5330756436
 10
1170.1086392119
 20
670.5351580886
  0
LWPOLYLINE
  5
385
330
1F
100
AcDbEntity
  8
0
  6
Continuous
 62
     7
370
    25
100
AcDbPolyline
 90
       31
 70
   128
 43
0.0
 10
1189.1057445382
 20
668.2445598137
 10
1189.1086392119
 20
668.2387717888
 10
1188.9891711999
 20
668.2016448475
 10
1188.6322695434
 20
668.164984799
 10
1188.0424224878
 20
668.1292526647
 10
1187.2270477021
 20
668.094897797
 10
1186.1963989973
 20
668.0623522281
 10
1184.9634373788
 20
668.0320252376
 10
1183.5436680545
 20
668.004298205
 10
1181.9549454473
 20
667.9795198137
 10
1180.2172486657
 20
667.9580016664
 10
1178.3524302552
 20
667.9400143663
 10
1176.3839413891
 20
667.9257841141
 10
1174.3365369571
 20
667.9154898636
 10
1172.2359642579
 20
667.9092610708
 10
1170.1086392119
 20
667.9071760665
 10
1167.981314166
 20
667.9092610708
 10
1165.8807414668
 20
667.9154898636
 10
1163.8333370348
 20
667.9257841141
 10
1161.8648481687
 20
667.9400143663
 10
1160.0000297582
 20
667.9580016664
 10
1158.2623329766
 20
667.9795198137
 10
1156.6736103694
 20
668.004298205
 10
1155.2538410451
 20
668.0320252376
 10
1154.0208794266
 20
668.0623522281
 10
1152.9902307218
 20
668.094897797
 10
1152.1748559361
 20
668.1292526647
 10
1151.5850088805
 20
668.164984799
 10
1151.228107224
 20
668.2016448475
 10
1151.1086392119
 20
668.2387717888
 10
1151.1115338857
 20
668.2445598137
  0
DIMENSION
  5
386
330
1F
100
AcDbEntity
  8
SLD-0
100
AcDbDimension
  2
_D_11
 10
1049.97464721
 20
478.1178781254
 30
0.0
 11
1049.97464721
 21
527.5278781254
 31
0.0
 70
   160
  1
<>
 71
     2
 42
-1.0
  3
SLDDIMSTYLE0
100
AcDbAlignedDimension
 13
1150.1086392119
 23
576.9378781254
 33
0.0
 14
1150.1086392119
 24
478.1178781254
 34
0.0
 50
90.0
100
AcDbRotatedDimension
  0
DIMENSION
  5
39A
330
1F
100
AcDbEntity
  8
SLD-0
100
AcDbDimension
  2
_D_12
 10
1190.1086392119
 20
381.4089759704
 30
0.0
 11
1115.2492205424
 21
381.4089759704
 31
0.0
 70
   160
  1
<>
 71
     2
 42
-1.0
  3
SLDDIMSTYLE1
100
AcDbAlignedDimension
 13
1150.1086392119
 23
478.1178781254
 33
0.0
 14
1190.1086392119
 24
478.1178781254
 34
0.0
 50
0.0
100
AcDbRotatedDimension
  0
DIMENSION
  5
3AE
330
1F
100
AcDbEntity
  8
SLD-0
100
AcDbDimension
  2
_D_13
 10
1168.4152529058
 20
612.5049096892
 30
0.0
 11
1312.4510389398
 21
711.1878915424
 31
0.0
 70
   163
  1
<> THRU\P3 PLACE FOR MOUNTING\P72.7 MM APART
 71
     1
 42
-1.0
  3
SLDDIMSTYLE2
100
AcDbDiametricDimension
 15
1171.8020255181
 25
618.0528616783
 35
0.0
 40
0.0
  0
DIMENSION
  5
3BB
330
1F
100
AcDbEntity
  8
SLD-0
100
AcDbDimension
  2
_D_14
 10
1049.97464721
 20
658.0678781254
 30
0.0
 11
1049.97464721
 21
617.5028781254
 31
0.0
 70
   160
  1
<>
 71
     2
 42
-1.0
  3
SLDDIMSTYLE0
100
AcDbAlignedDimension
 13
1150.1086392119
 23
576.9378781254
 33
0.0
 14
1090.0034705947
 24
658.0678781254
 34
0.0
 50
90.0
100
AcDbRotatedDimension
  0
DIMENSION
  5
3CF
330
1F
100
AcDbEntity
  8
SLD-0
100
AcDbDimension
  2
_D_15
 10
1276.3024802149
 20
615.2788856837
 30
0.0
 11
1276.3024802149
 21
596.8285380578
 31
0.0
 70
   160
  1
<>
 71
     2
 42
-1.0
  3
SLDDIMSTYLE3
100
AcDbAlignedDimension
 13
1191.6086392119
 23
658.2741469417
 33
0.0
 14
1175.3586392119
 24
615.2788856837
 34
0.0
 50
90.0
100
AcDbRotatedDimension
  0
INSERT
  5
3E5
330
1F
100
AcDbEntity
  8
SLD-0
100
AcDbBlockReference
  2
SW_SYMBOL_MOD_CL
 10
1161.3124882551
 20
686.0756157502
 30
0.0
 41
0.0030416748
 42
0.0030416748
 43
0.0030416748
  0
INSERT
  5
3F1
330
1F
100
AcDbEntity
  8
SLD-0
100
AcDbBlockReference
  2
SW_CENTERMARKSYMBOL_1
 10
1170.1086392119
 20
615.2788856837
 30
0.0
  0
LINE
  5
3F2
330
1F
100
AcDbEntity
  8
SLD-0
  6
CENTERX2
370
    18
100
AcDbLine
 10
1170.1086392119
 20
406.2144344679
 30
0.0
 11
1170.1086392119
 21
678.7497631661
 31
0.0
  0
LINE
  5
3F3
330
1F
100
AcDbEntity
  8
0
  6
Continuous
 62
     7
370
    25
100
AcDbLine
 10
1569.0475553094
 20
591.8540266511
 30
0.0
 11
1567.6591862191
 21
592.600208158
 31
0.0
  0
LINE
  5
3F4
330
1F
100
AcDbEntity
  8
0
  6
Continuous
 62
     7
370
    25
100
AcDbLine
 10
1544.2557596925
 20
592.2433797992
 30
0.0
 11
1542.8907844855
 21
591.4552184854
 31
0.0
  0
LINE
  5
3F5
330
1F
100
AcDbEntity
  8
0
  6
Continuous
 62
     7
370
    25
100
AcDbLine
 10
1575.1952105683
 20
576.9740505166
 30
0.0
 11
1575.0903144914
 21
583.8539062523
 31
0.0
  0
LINE
  5
3F6
330
1F
100
AcDbEntity
  8
0
  6
Continuous
 62
     7
370
    25
100
AcDbLine
 10
1537.0947305794
 20
583.2745935677
 30
0.0
 11
1537.1996266564
 21
576.3947378321
 31
0.0
  0
LINE
  5
3F7
330
1F
100
AcDbEntity
  8
0
  6
Continuous
 62
     7
370
    25
100
AcDbLine
 10
1488.4216723443
 20
560.3882659152
 30
0.0
 11
1488.4216723443
 21
554.0565735882
 31
0.0
  0
LINE
  5
3F8
330
1F
100
AcDbEntity
  8
0
  6
Continuous
 62
     7
370
    25
100
AcDbLine
 10
1577.7325345354
 20
574.5451278659
 30
0.0
 11
1577.6949200362
 21
577.0121631932
 31
0.0
  0
LINE
  5
3F9
330
1F
100
AcDbEntity
  8
0
  6
Continuous
 62
     7
370
    25
100
AcDbLine
 10
1660.2132601045
 20
384.6478286655
 30
0.0
 11
1660.2132601045
 21
573.2920279078
 31
0.0
  0
ELLIPSE
  5
3FA
330
1F
100
AcDbEntity
  8
0
  6
Continuous
 62
     7
370
    25
100
AcDbEllipse
 10
1496.4216723443
 20
560.6397372877
 30
0.0
 11
7.996328368611104
 21
0.3988439750196449
 31
0.0
210
0.0
220
0.0
230
1.0
 40
0.6076264303
 41
2.883755740729958
 42
3.89669266409413
  0
ELLIPSE
  5
3FB
330
1F
100
AcDbEntity
  8
0
  6
Continuous
 62
     7
370
    25
100
AcDbEllipse
 10
1780.8952417495
 20
529.4950679323
 30
0.0
 11
299.8623138229153
 21
14.956649063236
 31
0.0
210
0.0
220
0.0
230
1.0
 40
0.6076264303
 41
2.464360507745792
 42
2.883755740729994
  0
ELLIPSE
  5
3FC
330
1F
100
AcDbEntity
  8
0
  6
Continuous
 62
     7
370
    25
100
AcDbEllipse
 10
1552.6856716815
 20
627.2311102161
 30
0.0
 11
13.9935746450692
 21
0.6979769562842649
 31
0.0
210
0.0
220
0.0
230
1.0
 40
0.6076264303
 41
2.261716589227365
 42
2.46436050774585
  0
LINE
  5
3FD
330
1F
100
AcDbEntity
  8
0
  6
Continuous
 62
     7
370
    25
100
AcDbLine
 10
1656.7272848412
 20
567.9567807752
 30
0.0
 11
1543.4414689665
 21
633.3391445067
 31
0.0
  0
ELLIPSE
  5
3FE
330
1F
100
AcDbEntity
  8
0
  6
Continuous
 62
     7
370
    25
100
AcDbEllipse
 10
1646.2132601045
 20
573.252112422
 30
0.0
 11
13.99357464506921
 21
0.6979769562843787
 31
0.0
210
0.0
220
0.0
230
1.0
 40
0.6076264303
 41
5.329024820442408
 42
5.531668738960879
  0
ELLIPSE
  5
3FF
330
1F
100
AcDbEntity
  8
0
  6
Continuous
 62
     7
370
    25
100
AcDbEllipse
 10
1473.8288288776
 20
706.7169711432
 30
0.0
 11
299.8623138229148
 21
14.956649063236
 31
0.0
210
0.0
220
0.0
230
1.0
 40
0.6076264303
 41
4.909629587458252
 42
5.329024820442457
  0
ELLIPSE
  5
400
330
1F
100
AcDbEntity
  8
0
  6
Continuous
 62
     7
370
    25
100
AcDbEllipse
 10
1539.6983082281
 20
535.6628350464
 30
0.0
 11
7.996328368610877
 21
0.3988439750195312
 31
0.0
210
0.0
220
0.0
230
1.0
 40
0.6076264303
 41
3.89669266409412
 42
4.909629587458263
  0
LINE
  5
401
330
1F
100
AcDbEntity
  8
0
  6
Continuous
 62
     7
370
    25
100
AcDbLine
 10
1534.0414539786
 20
532.0423746
 30
0.0
 11
1524.6210781021
 21
537.4792992254
 31
0.0
  0
LINE
  5
402
330
1F
100
AcDbEntity
  8
0
  6
Continuous
 62
     7
370
    25
100
AcDbLine
 10
1492.0957674595
 20
556.2511258173
 30
0.0
 11
1490.7648180948
 21
557.0192768413
 31
0.0
  0
LINE
  5
403
330
1F
100
AcDbEntity
  8
0
  6
Continuous
 62
     7
370
    25
100
AcDbLine
 10
1654.6516588359
 20
566.7188675895
 30
0.0
 11
1654.6516588359
 21
378.3262982175
 31
0.0
  0
ELLIPSE
  5
404
330
1F
100
AcDbEntity
  8
0
  6
Continuous
 62
     7
370
    25
100
AcDbEllipse
 10
1473.8288288776
 20
514.6429968005
 30
0.0
 11
299.9108826595732
 21
-13.4175084255769
 31
0.0
210
0.0
220
0.0
230
1.0
 40
0.544944912
 41
4.964302830497417
 42
5.383698063481626
  0
LINE
  5
405
330
1F
100
AcDbEntity
  8
0
  6
Continuous
 62
     7
370
    25
100
AcDbLine
 10
1541.502951498
 20
530.9764203588
 30
0.0
 11
1541.502951498
 21
353.0221388008
 31
0.0
  0
LINE
  5
406
330
1F
100
AcDbEntity
  8
0
  6
Continuous
 62
     7
370
    25
100
AcDbLine
 10
1571.4002144079
 20
567.9101737059
 30
0.0
 11
1512.0156415206
 21
532.4395223718
 31
0.0
  0
LINE
  5
407
330
1F
100
AcDbEntity
  8
0
  6
Continuous
 62
     7
370
    25
100
AcDbLine
 10
1481.6100499296
 20
549.9879633088
 30
0.0
 11
1512.0156415206
 21
532.4395223718
 31
0.0
  0
LINE
  5
408
330
1F
100
AcDbEntity
  8
0
  6
Continuous
 62
     7
370
    25
100
AcDbLine
 10
1537.096927474
 20
583.1305050718
 30
0.0
 11
1481.6100499296
 21
549.9879633088
 31
0.0
  0
LWPOLYLINE
  5
409
330
1F
100
AcDbEntity
  8
0
  6
Continuous
 62
     7
370
    25
100
AcDbPolyline
 90
       13
 70
   128
 43
0.0
 10
1575.105143693
 20
582.8812982136
 10
1575.9454457664
 20
581.871187887
 10
1576.7483439435
 20
580.5961548624
 10
1577.310301311
 20
579.2752600203
 10
1577.6247294326
 20
577.923989645
 10
1577.687941926
 20
576.5581861462
 10
1577.4991976824
 20
575.1938623211
 10
1577.0607095558
 20
573.8470136192
 10
1576.3776184182
 20
572.53343061
 10
1575.4579328889
 20
571.2685138534
 10
1574.3124354398
 20
570.0670933418
 10
1572.954555981
 20
568.9432546321
 10
1571.4002144079
 20
567.9101737059
  0
LWPOLYLINE
  5
40A
330
1F
100
AcDbEntity
  8
0
  6
Continuous
 62
     7
370
    25
100
AcDbPolyline
 90
       30
 70
   128
 43
0.0
 10
1537.1996266564
 20
576.3947378321
 10
1537.3184864236
 20
575.2458261367
 10
1537.6755208649
 20
574.0159947298
 10
1538.265478917
 20
572.8197199942
 10
1539.0809415151
 20
571.6720457788
 10
1540.111653744
 20
570.5874047527
 10
1541.3446537992
 20
569.5794369061
 10
1542.7644359898
 20
568.6608180195
 10
1544.3531457308
 20
567.8431002585
 10
1546.0908040755
 20
567.1365668983
 10
1547.955558962
 20
566.5501030059
 10
1549.9239600157
 20
566.091083705
 10
1551.9712534511
 20
565.7652814296
 10
1554.0716933656
 20
565.5767933324
 10
1556.1988655084
 20
565.5279897606
 10
1558.3260194556
 20
565.6194844473
 10
1560.4264050122
 20
565.8501267939
 10
1562.4736086111
 20
566.217016339
 10
1564.4418854792
 20
566.7155392337
 10
1566.3064833929
 20
567.3394262633
 10
1568.0439539516
 20
568.0808316865
 10
1569.6324474549
 20
568.9304318999
 10
1571.0519876753
 20
569.8775426878
 10
1572.2847230709
 20
570.9102535826
 10
1573.3151512789
 20
572.0155776456
 10
1574.1303140666
 20
573.1796147853
 10
1574.7199602891
 20
574.3877265594
 10
1575.076674803
 20
575.6247202613
 10
1575.1959717163
 20
576.8750399774
 10
1575.1952105683
 20
576.9740505166
  0
LINE
  5
40B
330
1F
100
AcDbEntity
  8
0
  6
Continuous
 62
     7
370
    25
100
AcDbLine
 10
1512.0156415206
 20
343.4582304846
 30
0.0
 11
1532.892144005
 21
355.0861550754
 31
0.0
  0
LINE
  5
40C
330
1F
100
AcDbEntity
  8
0
  6
Continuous
 62
     7
370
    25
100
AcDbLine
 10
1512.0156415206
 20
532.4395223718
 30
0.0
 11
1512.0156415206
 21
343.4582304846
 31
0.0
  0
LINE
  5
40D
330
1F
100
AcDbEntity
  8
0
  6
Continuous
 62
     7
370
    25
100
AcDbLine
 10
1571.4002144079
 20
567.9101737059
 30
0.0
 11
1571.437828907
 21
565.4431383785
 31
0.0
  0
LINE
  5
40E
330
1F
100
AcDbEntity
  8
0
  6
Continuous
 62
     7
370
    25
100
AcDbLine
 10
1571.437828907
 20
565.4431383785
 30
0.0
 11
1514.1709029897
 21
531.2373663501
 31
0.0
  0
LINE
  5
40F
330
1F
100
AcDbEntity
  8
0
  6
Continuous
 62
     7
370
    25
100
AcDbLine
 10
1514.1709029897
 20
531.2373663501
 30
0.0
 11
1514.1709029897
 21
347.1481840866
 31
0.0
  0
LINE
  5
410
330
1F
100
AcDbEntity
  8
0
  6
Continuous
 62
     7
370
    25
100
AcDbLine
 10
1514.1709029897
 20
347.1481840866
 30
0.0
 11
1530.697069818
 21
356.3530315843
 31
0.0
  0
LINE
  5
411
330
1F
100
AcDbEntity
  8
0
  6
Continuous
 62
     7
370
    25
100
AcDbLine
 10
1481.6100499296
 20
361.0066714216
 30
0.0
 11
1512.0156415206
 21
343.4582304846
 31
0.0
  0
LINE
  5
412
330
1F
100
AcDbEntity
  8
0
  6
Continuous
 62
     7
370
    25
100
AcDbLine
 10
1481.6100499296
 20
549.9879633088
 30
0.0
 11
1481.6100499296
 21
361.0066714216
 31
0.0
  0
LWPOLYLINE
  5
413
330
1F
100
AcDbEntity
  8
0
  6
Continuous
 62
     7
370
    25
100
AcDbPolyline
 90
       24
 70
   128
 43
0.0
 10
1496.8128457251
 20
389.9982530257
 10
1497.432864886
 20
389.5419912758
 10
1498.0069000621
 20
388.9227270258
 10
1498.4923776905
 20
388.1863882722
 10
1498.8532921164
 20
387.3875858918
 10
1499.0628759678
 20
386.5855634028
 10
1499.1055853694
 20
385.8398031443
 10
1498.9782527601
 20
385.2056147431
 10
1498.6903218171
 20
384.7300330515
 10
1498.2631470612
 20
384.4483297881
 10
1497.72841009
 20
384.3813975951
 10
1497.1257698982
 20
384.5342005272
 10
1496.499921552
 20
384.8954058899
 10
1495.8972813603
 20
385.4382247338
 10
1495.362544389
 20
386.1223986685
 10
1494.9353696332
 20
386.8971856433
 10
1494.6474386902
 20
387.7051232524
 10
1494.5201060809
 20
388.4862904597
 10
1494.5628154824
 20
389.1827516669
 10
1494.7723993339
 20
389.7428535323
 10
1495.1333137597
 20
390.1250558629
 10
1495.6187913881
 20
390.3010124603
 10
1496.1928265642
 20
390.2576734287
 10
1496.8128457251
 20
389.9982530257
  0
LWPOLYLINE
  5
414
330
1F
100
AcDbEntity
  8
0
  6
Continuous
 62
     7
370
    25
100
AcDbPolyline
 90
       24
 70
   128
 43
0.0
 10
1496.8128457251
 20
449.377181951
 10
1497.432864886
 20
448.9209202011
 10
1498.0069000621
 20
448.3016559511
 10
1498.4923776905
 20
447.5653171975
 10
1498.8532921164
 20
446.7665148171
 10
1499.0628759678
 20
445.9644923281
 10
1499.1055853694
 20
445.2187320696
 10
1498.9782527601
 20
444.5845436683
 10
1498.6903218171
 20
444.1089619768
 10
1498.2631470612
 20
443.8272587133
 10
1497.72841009
 20
443.7603265204
 10
1497.1257698982
 20
443.9131294525
 10
1496.499921552
 20
444.2743348152
 10
1495.8972813603
 20
444.8171536591
 10
1495.362544389
 20
445.5013275938
 10
1494.9353696332
 20
446.2761145685
 10
1494.6474386902
 20
447.0840521777
 10
1494.5201060809
 20
447.865219385
 10
1494.5628154824
 20
448.5616805921
 10
1494.7723993339
 20
449.1217824576
 10
1495.1333137597
 20
449.5039847882
 10
1495.6187913881
 20
449.6799413856
 10
1496.1928265642
 20
449.636602354
 10
1496.8128457251
 20
449.377181951
  0
LWPOLYLINE
  5
415
330
1F
100
AcDbEntity
  8
0
  6
Continuous
 62
     7
370
    25
100
AcDbPolyline
 90
       24
 70
   128
 43
0.0
 10
1496.8128457251
 20
508.7561108762
 10
1497.432864886
 20
508.2998491264
 10
1498.0069000621
 20
507.6805848764
 10
1498.4923776905
 20
506.9442461228
 10
1498.8532921164
 20
506.1454437424
 10
1499.0628759678
 20
505.3434212534
 10
1499.1055853694
 20
504.5976609949
 10
1498.9782527601
 20
503.9634725936
 10
1498.6903218171
 20
503.4878909021
 10
1498.2631470612
 20
503.2061876386
 10
1497.72841009
 20
503.1392554457
 10
1497.1257698982
 20
503.2920583778
 10
1496.499921552
 20
503.6532637404
 10
1495.8972813603
 20
504.1960825844
 10
1495.362544389
 20
504.8802565191
 10
1494.9353696332
 20
505.6550434938
 10
1494.6474386902
 20
506.462981103
 10
1494.5201060809
 20
507.2441483103
 10
1494.5628154824
 20
507.9406095174
 10
1494.7723993339
 20
508.5007113828
 10
1495.1333137597
 20
508.8829137135
 10
1495.6187913881
 20
509.0588703109
 10
1496.1928265642
 20
509.0155312793
 10
1496.8128457251
 20
508.7561108762
  0
ELLIPSE
  5
416
330
1F
100
AcDbEntity
  8
0
  6
Continuous
 62
     7
370
    25
100
AcDbEllipse
 10
1539.6983082281
 20
357.3320283475
 30
0.0
 11
7.997623537588424
 21
-0.3578002246820802
 31
0.0
210
0.0
220
0.0
230
1.0
 40
0.544944912
 41
3.951365907133268
 42
4.964302830497405
  0
LINE
  5
417
330
1F
100
AcDbEntity
  8
0
  6
Continuous
 62
     7
370
    25
100
AcDbLine
 10
1534.0414539786
 20
354.4228363523
 30
0.0
 11
1534.0414539786
 21
532.0423746
 31
0.0
  0
LINE
  5
418
330
1F
100
AcDbEntity
  8
0
  6
Continuous
 62
     7
370
    25
100
AcDbLine
 10
1534.0414539786
 20
354.4228363523
 30
0.0
 11
1514.1709029897
 21
365.8910292789
 31
0.0
  0
LINE
  5
419
330
1F
100
AcDbEntity
  8
0
  6
Continuous
 62
     7
370
    25
100
AcDbLine
 10
1526.5452716605
 20
394.9264428145
 30
0.0
 11
1526.5452716605
 21
475.6269612956
 31
0.0
  0
LINE
  5
41A
330
1F
100
AcDbEntity
  8
0
  6
Continuous
 62
     7
370
    25
100
AcDbLine
 10
1526.5452716605
 20
475.6269612956
 30
0.0
 11
1514.1709029897
 21
482.7687686537
 31
0.0
  0
LINE
  5
41B
330
1F
100
AcDbEntity
  8
0
  6
Continuous
 62
     7
370
    25
100
AcDbLine
 10
1498.261000413
 20
447.9481196083
 30
0.0
 11
1498.261000413
 21
445.8497744218
 31
0.0
  0
LINE
  5
41C
330
1F
100
AcDbEntity
  8
0
  6
Continuous
 62
     7
370
    25
100
AcDbLine
 10
1514.1709029897
 20
402.0682501726
 30
0.0
 11
1526.5452716605
 21
394.9264428145
 31
0.0
  0
LWPOLYLINE
  5
41D
330
1F
100
AcDbEntity
  8
0
  6
Continuous
 62
     7
370
    25
100
AcDbPolyline
 90
       54
 70
   128
 43
0.0
 10
1568.0868255573
 20
592.362028686
 10
1566.5807255191
 20
593.1321904182
 10
1564.9270476284
 20
593.7907634961
 10
1563.1490058976
 20
594.3285029974
 10
1561.2715601353
 20
594.7378602383
 10
1559.3210655645
 20
595.0130887403
 10
1557.3249028535
 20
595.1503248987
 10
1555.311093751
 20
595.1476422185
 10
1553.3079077226
 20
595.0050783588
 10
1551.343465109
 20
594.7246346036
 10
1549.4453423785
 20
594.3102477685
 10
1547.6401850134
 20
593.7677349364
 10
1545.9533334661
 20
593.1047117981
 10
1544.4084674349
 20
592.3304857452
 10
1543.0272734523
 20
591.4559252144
 10
1541.8291404543
 20
590.4933071184
 10
1540.8308876018
 20
589.4561445052
 10
1540.0465281767
 20
588.3589968644
 10
1539.487072866
 20
587.2172657439
 10
1539.1603751958
 20
586.046978546
 10
1539.0710212854
 20
584.8645635376
 10
1539.2202654678
 20
583.6866192335
 10
1539.6060126818
 20
582.5296813897
 10
1540.2228478821
 20
581.4099908774
 10
1541.0621120546
 20
580.3432656972
 10
1542.1120237701
 20
579.3444803321
 10
1543.3578445693
 20
578.4276555394
 10
1544.7820858593
 20
577.6056615294
 10
1546.3647544143
 20
576.8900372962
 10
1548.0836330369
 20
576.2908286355
 10
1549.9145924393
 20
575.8164471232
 10
1551.8319299648
 20
575.473552036
 10
1553.8087303976
 20
575.2669568693
 10
1555.8172437926
 20
575.1995617663
 10
1557.8292750246
 20
575.2723128066
 10
1559.8165795855
 20
575.484188725
 10
1561.7512600754
 20
575.832215248
 10
1563.6061578213
 20
576.3115068462
 10
1565.3552341246
 20
576.9153353162
 10
1566.9739357881
 20
577.6352242298
 10
1568.4395397888
 20
578.4610679247
 10
1569.7314722591
 20
579.3812733657
 10
1570.831597299
 20
580.3829228856
 10
1571.7244715645
 20
581.4519555206
 10
1572.3975610581
 20
582.573364396
 10
1572.8414170787
 20
583.7314073894
 10
1573.0498088609
 20
584.9098281154
 10
1573.0198110407
 20
586.0920841304
 10
1572.7518447217
 20
587.2615791513
 10
1572.2496715638
 20
588.4018960316
 10
1571.5203409773
 20
589.497027222
 10
1570.5740911648
 20
590.5315994811
 10
1569.4242053996
 20
591.4910896822
 10
1568.0868255573
 20
592.362028686
  0
LWPOLYLINE
  5
41E
330
1F
100
AcDbEntity
  8
0
  6
Continuous
 62
     7
370
    25
100
AcDbPolyline
 90
       45
 70
   128
 43
0.0
 10
1569.0475553094
 20
591.8540266511
 10
1569.5255051579
 20
591.5878260648
 10
1570.9452873485
 20
590.6692071783
 10
1572.1782874037
 20
589.6612393317
 10
1573.2089996326
 20
588.5765983055
 10
1574.0244622307
 20
587.4289240901
 10
1574.6144202829
 20
586.2326493545
 10
1574.9714547241
 20
585.0028179477
 10
1575.0910756393
 20
583.7548957131
 10
1574.9717787261
 20
582.5045759969
 10
1574.6150642122
 20
581.267582295
 10
1574.0254179897
 20
580.0594705209
 10
1573.2102552019
 20
578.8954333812
 10
1572.1798269939
 20
577.7901093182
 10
1570.9470915983
 20
576.7573984234
 10
1569.5275513779
 20
575.8102876355
 10
1567.9390578746
 20
574.9606874221
 10
1566.2015873159
 20
574.219281999
 10
1564.3369894022
 20
573.5953949693
 10
1562.3687125341
 20
573.0968720746
 10
1560.3215089352
 20
572.7299825296
 10
1558.2211233786
 20
572.499340183
 10
1556.0939694314
 20
572.4078454962
 10
1553.9667972886
 20
572.456649068
 10
1551.8663573742
 20
572.6451371652
 10
1549.8190639387
 20
572.9709394406
 10
1547.850662885
 20
573.4299587415
 10
1545.9859079985
 20
574.016422634
 10
1544.2482496538
 20
574.7229559942
 10
1542.6595399128
 20
575.5406737552
 10
1541.2397577222
 20
576.4592926417
 10
1540.006757667
 20
577.4672604883
 10
1538.9760454381
 20
578.5519015145
 10
1538.16058284
 20
579.6995757299
 10
1537.5706247879
 20
580.8958504655
 10
1537.2135903466
 20
582.1256818723
 10
1537.0939694314
 20
583.3736041069
 10
1537.2132663447
 20
584.6239238231
 10
1537.5699808586
 20
585.860917525
 10
1538.1596270811
 20
587.069029299
 10
1538.9747898688
 20
588.2330664388
 10
1540.0052180768
 20
589.3383905018
 10
1541.2379534724
 20
590.3711013966
 10
1542.6574936928
 20
591.3182121845
 10
1542.8907844855
 20
591.4552184854
  0
LINE
  5
41F
330
1F
100
AcDbEntity
  8
0
  6
Continuous
 62
     7
370
    25
100
AcDbLine
 10
1496.6700101553
 20
508.6722602643
 30
0.0
 11
1496.6742664116
 21
508.8312613367
 31
0.0
  0
ARC
  5
420
330
1F
100
AcDbEntity
  8
0
  6
Continuous
 62
     7
370
    25
100
AcDbCircle
 10
1501.5407433517
 20
508.838913937
 30
0.0
 40
4.873583416469031
100
AcDbArc
 50
181.9596287034
 51
240.0371191631
  0
LWPOLYLINE
  5
421
330
1F
100
AcDbEntity
  8
0
  6
Continuous
 62
     7
370
    25
100
AcDbPolyline
 90
        9
 70
   128
 43
0.0
 10
1577.7325345354
 20
574.5451278659
 10
1577.7255564251
 20
574.0911508188
 10
1577.5368121816
 20
572.7268269938
 10
1577.0983240549
 20
571.3799782919
 10
1576.4152329174
 20
570.0663952827
 10
1575.4955473881
 20
568.8014785261
 10
1574.3500499389
 20
567.6000580145
 10
1572.9921704802
 20
566.4762193048
 10
1571.437828907
 20
565.4431383785
  0
ARC
  5
422
330
1F
100
AcDbEntity
  8
0
  6
Continuous
 62
     7
370
    25
100
AcDbCircle
 10
1653.6579045697
 20
385.1245384451
 30
0.0
 40
6.572666004123786
100
AcDbArc
 50
297.8391958275
 51
355.8407346065
  0
ELLIPSE
  5
423
330
1F
100
AcDbEntity
  8
0
  6
Continuous
 62
     7
370
    25
100
AcDbEllipse
 10
1646.2132601045
 20
384.6877441513
 30
0.0
 11
13.99584119077985
 21
-0.6261503931935976
 31
0.0
210
0.0
220
0.0
230
1.0
 40
0.544944912
 41
5.383698063481585
 42
5.586341982000062
  0
LWPOLYLINE
  5
424
330
1F
100
AcDbEntity
  8
0
  6
Continuous
 62
     7
370
    25
100
AcDbPolyline
 90
        9
 70
   128
 43
0.0
 10
1656.7272848412
 20
567.9567807752
 10
1657.915723879
 20
568.8569256022
 10
1658.8745977592
 20
569.844073045
 10
1659.5850964228
 20
570.8988584073
 10
1660.0332821433
 20
572.0005901515
 10
1660.2103629411
 20
573.1276558012
 10
1660.1128650534
 20
574.2579459095
 10
1659.742701079
 20
575.3692877755
 10
1659.1071324591
 20
576.4398804028
  0
ARC
  5
425
330
1F
100
AcDbEntity
  8
0
  6
Continuous
 62
     7
370
    25
100
AcDbCircle
 10
1552.7433686329
 20
613.1294359508
 30
0.0
 40
22.24764385990484
100
AcDbArc
 50
75.9620717409
 51
114.7151434925
  0
LWPOLYLINE
  5
426
330
1F
100
AcDbEntity
  8
0
  6
Continuous
 62
     7
370
    25
100
AcDbPolyline
 90
       22
 70
   128
 43
0.0
 10
1659.1071324591
 20
576.4398804028
 10
1656.2743497522
 20
580.1155004227
 10
1653.2098771687
 20
583.7286792509
 10
1649.9178389297
 20
587.2745542079
 10
1646.402665518
 20
590.7483531927
 10
1642.6690877158
 20
594.1454011058
 10
1638.7221302376
 20
597.4611261403
 10
1634.5671049683
 20
600.6910659352
 10
1630.2096038138
 20
603.8308735809
 10
1625.6554911758
 20
606.8763234689
 10
1620.910896059
 20
609.8233169793
 10
1615.9822038229
 20
612.6678879965
 10
1610.8760475882
 20
615.4062082468
 10
1605.5992993097
 20
618.0345924508
 10
1600.1590605278
 20
620.5495032827
 10
1594.5626528115
 20
622.9475561313
 10
1588.8176079047
 20
625.2255236551
 10
1582.9316575898
 20
627.3803401253
 10
1576.9127232821
 20
629.409105552
 10
1570.7689053691
 20
631.3090895871
 10
1564.5084723089
 20
633.0777351987
 10
1558.1398495025
 20
634.7126621124
  0
LINE
  5
427
330
1F
100
AcDbEntity
  8
0
  6
Continuous
 62
     7
370
    25
100
AcDbLine
 10
1521.712196811
 20
478.416347198
 30
0.0
 11
1521.712196811
 21
477.9094958503
 31
0.0
  0
LINE
  5
428
330
1F
100
AcDbEntity
  8
0
  6
Continuous
 62
     7
370
    25
100
AcDbLine
 10
1521.712196811
 20
477.9094958503
 30
0.0
 11
1523.1264103734
 21
477.0932892951
 31
0.0
  0
LINE
  5
429
330
1F
100
AcDbEntity
  8
0
  6
Continuous
 62
     7
370
    25
100
AcDbLine
 10
1523.1264103734
 20
477.0932892951
 30
0.0
 11
1523.1264103734
 21
477.6001406428
 31
0.0
  0
LINE
  5
42A
330
1F
100
AcDbEntity
  8
0
  6
Continuous
 62
     7
370
    25
100
AcDbLine
 10
1526.5452716605
 20
439.383875494
 30
0.0
 11
1516.6457767238
 21
445.0973213805
 31
0.0
  0
LINE
  5
42B
330
1F
100
AcDbEntity
  8
0
  6
Continuous
 62
     7
370
    25
100
AcDbLine
 10
1496.6700101553
 20
449.293331339
 30
0.0
 11
1496.6742664116
 21
449.4523324115
 31
0.0
  0
ARC
  5
42C
330
1F
100
AcDbEntity
  8
0
  6
Continuous
 62
     7
370
    25
100
AcDbCircle
 10
1501.5407433517
 20
449.4599850118
 30
0.0
 40
4.873583416469229
100
AcDbArc
 50
181.9596287034
 51
240.0371191631
  0
LINE
  5
42D
330
1F
100
AcDbEntity
  8
0
  6
Continuous
 62
     7
370
    25
100
AcDbLine
 10
1522.1512989265
 20
478.1629215242
 30
0.0
 11
1521.712196811
 21
477.9094958503
 31
0.0
  0
LINE
  5
42E
330
1F
100
AcDbEntity
  8
0
  6
Continuous
 62
     7
370
    25
100
AcDbLine
 10
1525.8381648793
 20
427.5488804435
 30
0.0
 11
1526.5452716605
 21
427.9569837211
 31
0.0
  0
LINE
  5
42F
330
1F
100
AcDbEntity
  8
0
  6
Continuous
 62
     7
370
    25
100
AcDbLine
 10
1525.8381648793
 20
427.5488804435
 30
0.0
 11
1514.1709029897
 21
434.282584524
 31
0.0
  0
LINE
  5
430
330
1F
100
AcDbEntity
  8
0
  6
Continuous
 62
     7
370
    25
100
AcDbLine
 10
1514.1709029897
 20
443.6689599089
 30
0.0
 11
1516.6457767238
 21
445.0973213805
 31
0.0
  0
LINE
  5
431
330
1F
100
AcDbEntity
  8
0
  6
Continuous
 62
     7
370
    25
100
AcDbLine
 10
1525.8381648793
 20
404.682916899
 30
0.0
 11
1526.5452716605
 21
405.0910201766
 31
0.0
  0
LINE
  5
432
330
1F
100
AcDbEntity
  8
0
  6
Continuous
 62
     7
370
    25
100
AcDbLine
 10
1525.8381648793
 20
404.682916899
 30
0.0
 11
1525.8381648793
 21
427.5488804435
 31
0.0
  0
LWPOLYLINE
  5
433
330
1F
100
AcDbEntity
  8
0
  6
Continuous
 62
     7
370
    25
100
AcDbPolyline
 90
       13
 70
   128
 43
0.0
 10
1523.0097377545
 20
417.7483117816
 10
1522.922681176
 20
419.0760649153
 10
1522.6636550623
 20
420.4716129314
 10
1522.239037496
 20
421.9005928062
 10
1521.6592839708
 20
423.3278183126
 10
1520.9386699427
 20
424.718146422
 10
1520.0949393204
 20
426.0373426422
 10
1519.1488675523
 20
427.252923984
 10
1518.1237500649
 20
428.3349588004
 10
1517.0448286531
 20
429.2568038033
 10
1515.9386699427
 20
429.9957601093
 10
1514.8325112322
 20
430.5336321616
 10
1514.1709029897
 20
430.7567006091
  0
LWPOLYLINE
  5
434
330
1F
100
AcDbEntity
  8
0
  6
Continuous
 62
     7
370
    25
100
AcDbPolyline
 90
       13
 70
   128
 43
0.0
 10
1514.1709029897
 20
414.9425048943
 10
1514.8325112322
 20
414.401885312
 10
1515.9386699427
 20
413.6629290061
 10
1517.0448286531
 20
413.1250569538
 10
1518.1237500649
 20
412.8015133502
 10
1519.1488675523
 20
412.7002649125
 10
1520.0949393204
 20
412.8238047134
 10
1520.9386699427
 20
413.169090793
 10
1521.6592839708
 20
413.7276210619
 10
1522.239037496
 20
414.4856426514
 10
1522.6636550623
 20
415.4244905542
 10
1522.922681176
 20
416.5210472191
 10
1523.0097377545
 20
417.7483117816
  0
LINE
  5
435
330
1F
100
AcDbEntity
  8
0
  6
Continuous
 62
     7
370
    25
100
AcDbLine
 10
1514.1709029897
 20
411.4166209794
 30
0.0
 11
1525.8381648793
 21
404.682916899
 31
0.0
  0
LINE
  5
436
330
1F
100
AcDbEntity
  8
0
  6
Continuous
 62
     7
370
    25
100
AcDbLine
 10
1496.6700101553
 20
389.9144024138
 30
0.0
 11
1496.6742664116
 21
390.0734034862
 31
0.0
  0
ARC
  5
437
330
1F
100
AcDbEntity
  8
0
  6
Continuous
 62
     7
370
    25
100
AcDbCircle
 10
1501.5407433517
 20
390.0810560865
 30
0.0
 40
4.873583416469722
100
AcDbArc
 50
181.9596287034
 51
240.0371191631
  0
LINE
  5
438
330
1F
100
AcDbEntity
  8
0
  6
Continuous
 62
     7
370
    25
100
AcDbLine
 10
1490.7648180948
 20
557.0192768413
 30
0.0
 11
1490.7648180948
 21
555.4561442494
 31
0.0
  0
OLE2FRAME
  5
439
330
1F
100
AcDbEntity
  8
0
100
AcDbOle2Frame
 70
     2
  3
Picture (Enhanced Metafile)
 10
26.8094712345
 20
62.2672723676
 30
0.0
 11
175.6591222624
 21
30.6786004452
 31
0.0
 71
     3
 72
     0
 73
     1
 90
     5248
310
80554E67BF8139CF3A4087E11EFB35224F4000000000000000006221928717F5
310
654087E11EFB35224F4000000000000000006221928717F56540725E3FC2B8AD
310
3E4000000000000000004E67BF8139CF3A40725E3FC2B8AD3E40000000000000
310
0000000000000100000000010000010000000100000000000100000000140000
310
D0CF11E0A1B11AE1000000000000000000000000000000003E000300FEFF0900
310
0600000000000000000000000100000001000000000000000010000002000000
310
01000000FEFFFFFF0000000000000000FFFFFFFFFFFFFFFFFFFFFFFFFFFFFFFF
310
FFFFFFFFFFFFFFFFFFFFFFFFFFFFFFFFFFFFFFFFFFFFFFFFFFFFFFFFFFFFFFFF
310
FFFFFFFFFFFFFFFFFFFFFFFFFFFFFFFFFFFFFFFFFFFFFFFFFFFFFFFFFFFFFFFF
310
FFFFFFFFFFFFFFFFFFFFFFFFFFFFFFFFFFFFFFFFFFFFFFFFFFFFFFFFFFFFFFFF
310
FFFFFFFFFFFFFFFFFFFFFFFFFFFFFFFFFFFFFFFFFFFFFFFFFFFFFFFFFFFFFFFF
310
FFFFFFFFFFFFFFFFFFFFFFFFFFFFFFFFFFFFFFFFFFFFFFFFFFFFFFFFFFFFFFFF
310
FFFFFFFFFFFFFFFFFFFFFFFFFFFFFFFFFFFFFFFFFFFFFFFFFFFFFFFFFFFFFFFF
310
FFFFFFFFFFFFFFFFFFFFFFFFFFFFFFFFFFFFFFFFFFFFFFFFFFFFFFFFFFFFFFFF
310
FFFFFFFFFFFFFFFFFFFFFFFFFFFFFFFFFFFFFFFFFFFFFFFFFFFFFFFFFFFFFFFF
310
FFFFFFFFFFFFFFFFFFFFFFFFFFFFFFFFFFFFFFFFFFFFFFFFFFFFFFFFFFFFFFFF
310
FFFFFFFFFFFFFFFFFFFFFFFFFFFFFFFFFFFFFFFFFFFFFFFFFFFFFFFFFFFFFFFF
310
FFFFFFFFFFFFFFFFFFFFFFFFFFFFFFFFFFFFFFFFFFFFFFFFFFFFFFFFFFFFFFFF
310
FFFFFFFFFFFFFFFFFFFFFFFFFFFFFFFFFFFFFFFFFFFFFFFFFFFFFFFFFFFFFFFF
310
FFFFFFFFFFFFFFFFFFFFFFFFFFFFFFFFFFFFFFFFFFFFFFFFFFFFFFFFFFFFFFFF
310
FDFFFFFFFEFFFFFFFEFFFFFF0400000005000000060000000700000008000000
310
FEFFFFFFFFFFFFFFFFFFFFFFFFFFFFFFFFFFFFFFFFFFFFFFFFFFFFFFFFFFFFFF
310
FFFFFFFFFFFFFFFFFFFFFFFFFFFFFFFFFFFFFFFFFFFFFFFFFFFFFFFFFFFFFFFF
310
FFFFFFFFFFFFFFFFFFFFFFFFFFFFFFFFFFFFFFFFFFFFFFFFFFFFFFFFFFFFFFFF
310
FFFFFFFFFFFFFFFFFFFFFFFFFFFFFFFFFFFFFFFFFFFFFFFFFFFFFFFFFFFFFFFF
310
FFFFFFFFFFFFFFFFFFFFFFFFFFFFFFFFFFFFFFFFFFFFFFFFFFFFFFFFFFFFFFFF
310
FFFFFFFFFFFFFFFFFFFFFFFFFFFFFFFFFFFFFFFFFFFFFFFFFFFFFFFFFFFFFFFF
310
FFFFFFFFFFFFFFFFFFFFFFFFFFFFFFFFFFFFFFFFFFFFFFFFFFFFFFFFFFFFFFFF
310
FFFFFFFFFFFFFFFFFFFFFFFFFFFFFFFFFFFFFFFFFFFFFFFFFFFFFFFFFFFFFFFF
310
FFFFFFFFFFFFFFFFFFFFFFFFFFFFFFFFFFFFFFFFFFFFFFFFFFFFFFFFFFFFFFFF
310
FFFFFFFFFFFFFFFFFFFFFFFFFFFFFFFFFFFFFFFFFFFFFFFFFFFFFFFFFFFFFFFF
310
FFFFFFFFFFFFFFFFFFFFFFFFFFFFFFFFFFFFFFFFFFFFFFFFFFFFFFFFFFFFFFFF
310
FFFFFFFFFFFFFFFFFFFFFFFFFFFFFFFFFFFFFFFFFFFFFFFFFFFFFFFFFFFFFFFF
310
FFFFFFFFFFFFFFFFFFFFFFFFFFFFFFFFFFFFFFFFFFFFFFFFFFFFFFFFFFFFFFFF
310
FFFFFFFFFFFFFFFFFFFFFFFFFFFFFFFFFFFFFFFFFFFFFFFFFFFFFFFFFFFFFFFF
310
FFFFFFFFFFFFFFFFFFFFFFFFFFFFFFFFFFFFFFFFFFFFFFFFFFFFFFFFFFFFFFFF
310
52006F006F007400200045006E00740072007900000000000000000000000000
310
0000000000000000000000000000000000000000000000000000000000000000
310
16000500FFFFFFFFFFFFFFFF020000001903000000000000C000000000000046
310
000000000000000000000000505DF43CCEF8DA0103000000000C000000000000
310
01004F006C006500000000000000000000000000000000000000000000000000
310
0000000000000000000000000000000000000000000000000000000000000000
310
0A000200FFFFFFFFFFFFFFFFFFFFFFFF00000000000000000000000000000000
310
0000000000000000000000000000000000000000000000001400000000000000
310
010043006F006D0070004F0062006A0000000000000000000000000000000000
310
0000000000000000000000000000000000000000000000000000000000000000
310
120002010100000003000000FFFFFFFF00000000000000000000000000000000
310
0000000000000000000000000000000000000000010000005800000000000000
310
43004F004E00540045004E005400530000000000000000000000000000000000
310
0000000000000000000000000000000000000000000000000000000000000000
310
12000200FFFFFFFFFFFFFFFFFFFFFFFF00000000000000000000000000000000
310
000000000000000000000000000000000000000003000000040B000000000000
310
FEFFFFFF02000000FEFFFFFF0400000005000000060000000700000008000000
310
090000000A0000000B0000000C0000000D0000000E0000000F00000010000000
310
1100000012000000130000001400000015000000160000001700000018000000
310
190000001A0000001B0000001C0000001D0000001E0000001F00000020000000
310
2100000022000000230000002400000025000000260000002700000028000000
310
290000002A0000002B0000002C0000002D0000002E0000002F000000FEFFFFFF
310
FFFFFFFFFFFFFFFFFFFFFFFFFFFFFFFFFFFFFFFFFFFFFFFFFFFFFFFFFFFFFFFF
310
FFFFFFFFFFFFFFFFFFFFFFFFFFFFFFFFFFFFFFFFFFFFFFFFFFFFFFFFFFFFFFFF
310
FFFFFFFFFFFFFFFFFFFFFFFFFFFFFFFFFFFFFFFFFFFFFFFFFFFFFFFFFFFFFFFF
310
FFFFFFFFFFFFFFFFFFFFFFFFFFFFFFFFFFFFFFFFFFFFFFFFFFFFFFFFFFFFFFFF
310
FFFFFFFFFFFFFFFFFFFFFFFFFFFFFFFFFFFFFFFFFFFFFFFFFFFFFFFFFFFFFFFF
310
FFFFFFFFFFFFFFFFFFFFFFFFFFFFFFFFFFFFFFFFFFFFFFFFFFFFFFFFFFFFFFFF
310
FFFFFFFFFFFFFFFFFFFFFFFFFFFFFFFFFFFFFFFFFFFFFFFFFFFFFFFFFFFFFFFF
310
FFFFFFFFFFFFFFFFFFFFFFFFFFFFFFFFFFFFFFFFFFFFFFFFFFFFFFFFFFFFFFFF
310
FFFFFFFFFFFFFFFFFFFFFFFFFFFFFFFFFFFFFFFFFFFFFFFFFFFFFFFFFFFFFFFF
310
FFFFFFFFFFFFFFFFFFFFFFFFFFFFFFFFFFFFFFFFFFFFFFFFFFFFFFFFFFFFFFFF
310
0100000200000000000000000000000000000000000000000000000000000000
310
0000000000000000000000000000000000000000000000000000000000000000
310
0100FEFF030A0000FFFFFFFF1903000000000000C0000000000000461C000000
310
506963747572652028456E68616E636564204D65746166696C652900FFFFFFFF
310
0E00000000000000F439B2710000000000000000000000000000000000000000
310
0000000000000000000000000000000000000000000000000000000000000000
310
74000000010000006C000000FD0A000094000000870B0000B200000062570100
310
111200003B680100BB15000020454D46000001008C0A00003800000003000000
310
0D0000005800000000000000000400000003000040010000F000000041006400
310
6F006200650020005300790073007400FFFFFFFF000000000100000074000000
310
FD0A000094000000870B0000B200000062570100111200003B680100BB150000
310
20454D46000001008C0A000038000000030000000D0000005800000000000000
310
000400000003000040010000F0000000410064006F0062006500200053007900
310
7300740065006D0073000000110000000C00000008000000120000000C000000
310
010000000A0000001000000000000000000000000C0000001000000000000000
310
000000000900000010000000D7040000110100000B000000100000009D010000
310
5B000000130000000C0000000200000027000000180000000100000000000000
310
0000000000000000250000000C000000010000005F0000003400000002000000
310
2C000000000000002C0000000000000005000000000000000000000000000000
310
0000000000000000250000000C000000020000003B000000080000001B000000
310
100000003D210000F20100005800000048010000FC0A000093000000190B0000
310
B30000004B0000004921F9014921F9014921F9014921DA014921DA014921DA01
310
4921D5014621D0014221CD012821BE012821BE012821BE012321BB011D21BB01
310
1821BE01FE20CD01FE20CD01FE20CD01FA20D001F720D501F720DA01F720F801
310
F720F801F720F801F720FE01FA200302FE200602182115021821150218211502
310
1D21170223211702282115024321050243210502432105023721FE013721FE01
310
3721FE013521FD013521FD013521FD0122210902222109022221090221210902
310
1F2109021E2109020621FA010621FA010621FA010521FA010421F9010421F701
310
0421DB010421DB010421DB010421DA010521D9010621D8011E21CA011E21CA01
310
1E21CA011F21CA012121CA012221CA013A21D8013A21D8013A21D8013B21D901
310
3C21DA013C21DB013C21F2013C21F2013C21F2013D000000080000003C000000
310
080000003E000000180000009F8601009F8601006179FEFF6179FEFF13000000
310
0C000000020000003B000000080000001B000000100000002F210000E4010000
310
58000000C4000000050B00009D000000100B0000A90000002A0000002F21EF01
310
2F21EF012F21EF012F21F1012E21F2012C21F3012321F9012321F9012321F901
310
2221FA012121FA012021FA011F21FA011E21FA011D21F9011421F4011421F401
310
1421F4011221F3011121F1011121EF011121E4011121E4011121E4011121E201
310
1221E0011321DF011D21DA011D21DA011D21DA011E21D9011F21D9012021D901
310
2121D9012221D9012321DA012C21DF012C21DF012C21DF012E21E0012F21E201
310
2F21E4013D000000080000003C000000080000003E000000180000009F860100
310
9F8601006179FEFF6179FEFF130000000C000000020000005B00000038000000
310
3D0B0000A3000000430B0000A6000000010000000500000005000000B821F001
310
C821F001C821EB01B821EB01B821F001130000000C000000020000003B000000
310
080000001B0000001000000004220000E70100005800000084010000450B0000
310
9B000000590B0000AA0000005A0000000122E601FD21E501F621E501E421E501
310
E421E501E421E501D921E501D921E301D921E001D921DD01DA21DB01DC21DA01
310
DE21DA01E221D901E921D901EF21D901EF21D901EF21D9010022D9010022DB01
310
0022E0010022E1010022E1010022E1010722E1010722E1010722E1010722DF01
310
0722DF010722DF010722DB010622D8010322D6010022D401FB21D401F321D401
310
E521D401E521D401E521D401D921D401D121D601D121DF01D121E501D321E801
310
D721E901DB21EB01E221EB01EC21EB01F821EB01F821EB01F821EB010022EB01
310
0122ED010122F1010122F5010022F701F621F701E221F701E221F701E221F701
310
DA21F701D921F501D921F201D921EF01D921EF01D921EF01D121EF01D121EF01
310
D121EF01D121F201D121F201D121F201D121FC01DB21FD01E421FD01F521FD01
310
F521FD01F521FD01F921FD01FE21FD010222FB010622FA010922F6010922F201
310
0922EF010922EF010922EF010922EC010722E9010422E7013C00000008000000
310
3E000000180000009F8601009F8601006179FEFF6179FEFF130000000C000000
310
020000005B0000004C000000590B00009B0000006F0B0000AA00000001000000
310
0A0000000A0000002C22E6011722D4010C22D4012822EC012822FC013022FC01
310
3022EC014C22D4014122D4012C22E601130000000C000000020000003B000000
310
080000001B0000001000000082220000E701000058000000780100006F0B0000
310
9B000000830B0000AA000000570000007F22E6017B22E5017422E5016122E501
310
6122E5016122E5015722E5015722E3015722E0015722DB015822D9016622D901
310
6D22D9016D22D9016D22D9017E22D9017E22DB017E22E0017E22E1017E22E101
310
7E22E1018522E1018522E1018522E1018522DF018522DF018522DF018522DB01
310
8422D8018122D6017E22D4017922D4017122D4016322D4016322D4016322D401
310
5722D4014F22D6014F22DF014F22E5015122E8015522E9015922EB015F22EB01
310
6A22EB017622EB017622EB017622EB017E22EB017F22ED017F22F1017F22F501
310
7D22F7017422F7016022F7016022F7016022F7015822F7015722F5015722F201
310
5722EF015722EF015722EF014F22EF014F22EF014F22EF014F22F2014F22F201
310
4F22F2014F22FC015822FD016122FD017322FD017322FD017322FD017722FD01
310
7C22FD018022FB018422FA018622F6018622F2018622EF018622EF018622EF01
310
8622EC018522E9018222E7013C000000080000003E000000180000009F860100
310
9F8601006179FEFF6179FEFF130000000C000000020000005B00000038000000
310
300B0000A6000000340B0000AC00000001000000050000000500000093210202
310
9A2102029A21F3019321F30193210202130000000C000000020000003B000000
310
080000001B000000100000009B210000D40100005800000018010000240B0000
310
9B0000003A0B0000AA0000003F0000008021D4018021D4018021D4017421D401
310
6F21D8016F21E3016F21EE016F21EE016F21EE016F21F8017421FD018021FD01
310
8F21FD018F21FD018F21FD018F21F7018F21F7018F21F7018121F7018121F701
310
8121F7017921F7017621F5017621F0017621E1017621E1017621E1017621DC01
310
7921D9018121D9019A21D9019A21D9019A21D901A121D901A421DC01A421E101
310
A421F001A421F001A421F001A421F401A321F6019E21F7019E21F7019E21F701
310
9E21F7019E21FD019E21FD019E21FD019F21FD019F21FD019F21FD01A421FC01
310
A721FB01A921F801AB21F601AC21F201AC21EE01AC21E301AC21E301AC21E301
310
AC21D801A721D4019B21D4013C000000080000003E000000180000009F860100
310
9F8601006179FEFF6179FEFF130000000C000000020000005B0000006C000000
310
840B00009B000000870B00009F0000000100000012000000120000009222D401
310
9122D8019022D4018E22D4018E22DA018F22DA018F22D6018F22D5019022D601
310
9122DA019122DA019222D6019322D5019322D6019322DA019422DA019422D401
310
9222D401130000000C000000020000005B00000048000000830B00009B000000
310
850B00009F0000000100000009000000090000008A22D5018B22D5018B22DA01
310
8C22DA018C22D5018E22D5018E22D4018A22D4018A22D501280000000C000000
310
01000000280000000C000000020000000E000000140000000000000010000000
310
1400000000000000000000000000000000000000000000000000000000000000
310
0000000000000000000000000000000000000000000000000000000000000000
  1
OLE
  0
ENDSEC
  0
SECTION
  2
OBJECTS
  0
DICTIONARY
  5
C
330
0
100
AcDbDictionary
281
     1
  3
ACAD_GROUP
350
D
  3
ACAD_LAYOUT
350
1A
  3
ACAD_MLINESTYLE
350
17
  3
ACAD_PLOTSETTINGS
350
19
  3
ACAD_PLOTSTYLENAME
350
E
  3
ACAD_SCALELIST
350
47
  3
DWGPROPS
350
43A
  0
DICTIONARY
  5
D
102
{ACAD_REACTORS
330
C
102
}
330
C
100
AcDbDictionary
281
     1
  0
DICTIONARY
  5
1A
102
{ACAD_REACTORS
330
C
102
}
330
C
100
AcDbDictionary
281
     1
  3
Layout1
350
1E
  3
Layout2
350
26
  3
Model
350
22
  0
DICTIONARY
  5
17
102
{ACAD_REACTORS
330
C
102
}
330
C
100
AcDbDictionary
281
     1
  3
Standard
350
18
  0
DICTIONARY
  5
19
102
{ACAD_REACTORS
330
C
102
}
330
C
100
AcDbDictionary
281
     1
  0
ACDBDICTIONARYWDFLT
  5
E
102
{ACAD_REACTORS
330
C
102
}
330
C
100
AcDbDictionary
281
     1
  3
Normal
350
F
100
AcDbDictionaryWithDefault
340
F
  0
DICTIONARY
  5
47
102
{ACAD_REACTORS
330
C
102
}
330
C
100
AcDbDictionary
281
     1
  3
A0
350
48
  3
A1
350
49
  3
A2
350
4A
  3
A3
350
4B
  3
A4
350
4C
  3
A5
350
4D
  3
A6
350
4E
  3
A7
350
4F
  3
A8
350
50
  3
A9
350
51
  3
B0
350
52
  3
B1
350
53
  3
B2
350
54
  3
B3
350
55
  3
B4
350
56
  3
B5
350
57
  3
B6
350
58
  0
XRECORD
  5
43A
102
{ACAD_REACTORS
330
C
102
}
330
C
100
AcDbXrecord
280
     1
  1
DWGPROPS COOKIE
  2

  3

  4

  6

  7

  8
Kevin.Castro
  9

300
=
301
=
302
=
303
=
304
=
305
=
306
=
307
=
308
=
309
=
 40
0.0
 41
2460550.925493716
 42
2460550.925498345
  1

 90
        0
  0
LAYOUT
  5
1E
102
{ACAD_REACTORS
330
1A
102
}
330
1A
100
AcDbPlotSettings
  1

  2
none_device
  4

  6

 40
0.0
 41
0.0
 42
0.0
 43
0.0
 44
0.0
 45
0.0
 46
0.0
 47
0.0
 48
0.0
 49
0.0
140
0.0
141
0.0
142
1.0
143
1.0
 70
   688
 72
     1
 73
     0
 74
     5
  7

 75
    16
147
1.0
148
0.0
149
0.0
100
AcDbLayout
  1
Layout1
 70
     1
 71
     1
 10
0.0
 20
0.0
 11
420.0
 21
297.0
 12
0.0
 22
0.0
 32
0.0
 14
1.0000000000E+20
 24
1.0000000000E+20
 34
1.0000000000E+20
 15
-1.0000000000E+20
 25
-1.0000000000E+20
 35
-1.0000000000E+20
146
0.0
 13
0.0
 23
0.0
 33
0.0
 16
1.0
 26
0.0
 36
0.0
 17
0.0
 27
1.0
 37
0.0
 76
     0
330
1B
  0
LAYOUT
  5
26
102
{ACAD_REACTORS
330
1A
102
}
330
1A
100
AcDbPlotSettings
  1

  2
none_device
  4

  6

 40
0.0
 41
0.0
 42
0.0
 43
0.0
 44
0.0
 45
0.0
 46
0.0
 47
0.0
 48
0.0
 49
0.0
140
0.0
141
0.0
142
1.0
143
1.0
 70
   688
 72
     1
 73
     0
 74
     5
  7

 75
    16
147
1.0
148
0.0
149
0.0
100
AcDbLayout
  1
Layout2
 70
     1
 71
     2
 10
0.0
 20
0.0
 11
0.0
 21
0.0
 12
0.0
 22
0.0
 32
0.0
 14
0.0
 24
0.0
 34
0.0
 15
0.0
 25
0.0
 35
0.0
146
0.0
 13
0.0
 23
0.0
 33
0.0
 16
1.0
 26
0.0
 36
0.0
 17
0.0
 27
1.0
 37
0.0
 76
     0
330
23
  0
LAYOUT
  5
22
102
{ACAD_REACTORS
330
1A
102
}
330
1A
100
AcDbPlotSettings
  1

  2
none_device
  4
Letter_(8.50_x_11.00_Inches)
  6

 40
6.35
 41
6.35
 42
6.35000508
 43
6.35000508
 44
215.9
 45
279.4
 46
0.0
 47
0.0
 48
0.0
 49
0.0
140
0.0
141
0.0
142
1.0
143
1.0
 70
  1712
 72
     1
 73
     0
 74
     0
  7

 75
     0
147
1.0
148
0.0
149
0.0
100
AcDbLayout
  1
Model
 70
     1
 71
     0
 10
0.0
 20
0.0
 11
1727.2
 21
1117.6
 12
0.0
 22
0.0
 32
0.0
 14
0.0
 24
0.0
 34
0.0
 15
1727.2
 25
1117.6
 35
0.0
146
0.0
 13
0.0
 23
0.0
 33
0.0
 16
1.0
 26
0.0
 36
0.0
 17
0.0
 27
1.0
 37
0.0
 76
     0
330
1F
331
29
  0
MLINESTYLE
  5
18
102
{ACAD_REACTORS
330
17
102
}
330
17
100
AcDbMlineStyle
  2
Standard
 70
     0
  3

 62
   256
 51
90.0
 52
90.0
 71
     2
 49
0.5
 62
   256
  6
BYLAYER
 49
-0.5
 62
   256
  6
BYLAYER
  0
ACDBPLACEHOLDER
  5
F
102
{ACAD_REACTORS
330
E
102
}
330
E
  0
SCALE
  5
48
102
{ACAD_REACTORS
330
47
102
}
330
47
100
AcDbScale
 70
     0
300
1:1
140
1.0
141
1.0
290
     1
  0
SCALE
  5
49
102
{ACAD_REACTORS
330
47
102
}
330
47
100
AcDbScale
 70
     0
300
1:2
140
1.0
141
2.0
290
     0
  0
SCALE
  5
4A
102
{ACAD_REACTORS
330
47
102
}
330
47
100
AcDbScale
 70
     0
300
1:4
140
1.0
141
4.0
290
     0
  0
SCALE
  5
4B
102
{ACAD_REACTORS
330
47
102
}
330
47
100
AcDbScale
 70
     0
300
1:5
140
1.0
141
5.0
290
     0
  0
SCALE
  5
4C
102
{ACAD_REACTORS
330
47
102
}
330
47
100
AcDbScale
 70
     0
300
1:8
140
1.0
141
8.0
290
     0
  0
SCALE
  5
4D
102
{ACAD_REACTORS
330
47
102
}
330
47
100
AcDbScale
 70
     0
300
1:10
140
1.0
141
10.0
290
     0
  0
SCALE
  5
4E
102
{ACAD_REACTORS
330
47
102
}
330
47
100
AcDbScale
 70
     0
300
1:16
140
1.0
141
16.0
290
     0
  0
SCALE
  5
4F
102
{ACAD_REACTORS
330
47
102
}
330
47
100
AcDbScale
 70
     0
300
1:20
140
1.0
141
20.0
290
     0
  0
SCALE
  5
50
102
{ACAD_REACTORS
330
47
102
}
330
47
100
AcDbScale
 70
     0
300
1:30
140
1.0
141
30.0
290
     0
  0
SCALE
  5
51
102
{ACAD_REACTORS
330
47
102
}
330
47
100
AcDbScale
 70
     0
300
1:40
140
1.0
141
40.0
290
     0
  0
SCALE
  5
52
102
{ACAD_REACTORS
330
47
102
}
330
47
100
AcDbScale
 70
     0
300
1:50
140
1.0
141
50.0
290
     0
  0
SCALE
  5
53
102
{ACAD_REACTORS
330
47
102
}
330
47
100
AcDbScale
 70
     0
300
1:100
140
1.0
141
100.0
290
     0
  0
SCALE
  5
54
102
{ACAD_REACTORS
330
47
102
}
330
47
100
AcDbScale
 70
     0
300
2:1
140
2.0
141
1.0
290
     0
  0
SCALE
  5
55
102
{ACAD_REACTORS
330
47
102
}
330
47
100
AcDbScale
 70
     0
300
4:1
140
4.0
141
1.0
290
     0
  0
SCALE
  5
56
102
{ACAD_REACTORS
330
47
102
}
330
47
100
AcDbScale
 70
     0
300
8:1
140
8.0
141
1.0
290
     0
  0
SCALE
  5
57
102
{ACAD_REACTORS
330
47
102
}
330
47
100
AcDbScale
 70
     0
300
10:1
140
10.0
141
1.0
290
     0
  0
SCALE
  5
58
102
{ACAD_REACTORS
330
47
102
}
330
47
100
AcDbScale
 70
     0
300
100:1
140
100.0
141
1.0
290
     0
  0
ENDSEC
  0
EOF
